Регистрация ·  Логин: Пароль: Запомнить   · Забыли пароль?




Ответить на тему
Статистика раздачи
Размер: 7.1 ГБ | Зарегистрирован: 13 окт 2020, 17:19 | .torrent скачан: 0 раз(а), DHT: [ 87 ] раз(а)
Сидеров: [ 21  | 0 байт/сек ]   Личеров: [ 2  | 0 байт/сек ]   DHT: [ 21 / 2 ]
Автор Сообщение

Модератор

С нами: 2 года 4 месяца
Сообщения: 3361
Россия

Сообщение 13 окт 2020, 17:19 

[Цитировать]


Информация о фильме
Название: За призрачной дверью
Оригинальное название: The Pale Door
Год выхода: 2020
Жанр: Ужасы, вестерн
Режиссер: А.Б. Кунц
В ролях: Мелора Уолтерс, Захари Найтон, Ноа Сеган, Наташа Бассетт, Стэн Шоу, Девин Друид, Билл Сейдж, Пэт Хили, Джеймс Хеберт, Тина Паркер

О фильме: Ограбив поезд, банда лихих ковбоев находит в нём окованный цепями сундук, но вместо несметных сокровищ там оказывается связанная девушка. Она уговаривает своих внезапных спасителей отвезти её в родной городок Потёмкин и даже сулит награду. Не долго думая, банда соглашается. Они привозят девушку домой, и их радушно встречает хозяйка борделя, но вскоре окажется, что это странное место таит в себе жуткую тайну.



Страна: США
Студия: Paper Street Pictures, Storyteller Media, BondIt Media Capital
Продолжительность: 01:36:23
Перевод: Любительский многоголосый | @[email protected]

Файл
Кодек: MPEG-4 AVC
Качество: WEB-DL 1080p
Видео: 10000 Кбит/с, 1920x1040, 23.976 кадр/с
Звук:
Аудио #1: AC3, 48 Гц, 192 Кбит/сек, 2 ch (L + R) | MVO | @[email protected]
Аудио #2: AC3, 48 Гц, 640 Кбит/сек, 6 ch (L C R, + L R, LFE) | Английский
Субтитры: Английские


Общее
Уникальный идентификатор : 305197239101590123453327852306904574807 (0xE59AD9A4F02A2B02A003200D24AAEB57)
Полное имя : D:ТоррентыThe.Pale.Door.2020.1080p.AMZN.WEBRip.DDP5.1.x264-NTGZa.prizrachnoy.dveriyu.2020.x264.WEB-DL(1080p)-MediaBit.mkv
Формат : Matroska
Версия формата : Version 4
Размер файла : 7,10 Гбайт
Продолжительность : 1 ч. 36 м.
Общий поток : 10,5 Мбит/сек
Название фильма : За призрачной дверью / The Pale Door (2020)
Дата кодирования : UTC 2020-08-31 21:36:55
Программа кодирования : mkvmerge v25.0.0 ('Prog Noir') 64-bit
Библиотека кодирования : libebml v1.3.6 + libmatroska v1.4.9

Видео
Идентификатор : 1
Формат : AVC
Формат/Информация : Advanced Video Codec
Профиль формата : [email protected]
Настройки формата : CABAC / 4 Ref Frames
Параметр CABAC формата : Да
Параметр RefFrames формата : 4 кадра
Идентификатор кодека : V_MPEG4/ISO/AVC
Продолжительность : 1 ч. 36 м.
Вид битрейта : Постоянный
Битрейт : 10 000 Кбит/сек
Ширина : 1 920 пикселей
Высота : 1 040 пикселей
Соотношение сторон : 1,85:1
Режим частоты кадров : Постоянный
Частота кадров : 23,976 (24000/1001) кадра/сек
Цветовое пространство : YUV
Субдискретизация насыщенности : 4:2:0
Битовая глубина : 8 бит
Тип развёртки : Прогрессивная
Бит/(Пиксели*Кадры) : 0.209
Размер потока : 6,54 Гбайт (92%)
Заголовок : NTG
Язык : English
Default : Да
Forced : Нет
Цветовой диапазон : Limited
Основные цвета : BT.709
Характеристики трансфера : BT.709
Коэффициенты матрицы : BT.709

Аудио #1
Идентификатор : 2
Формат : AC-3
Формат/Информация : Audio Coding 3
Коммерческое название : Dolby Digital
Идентификатор кодека : A_AC3
Продолжительность : 1 ч. 36 м.
Вид битрейта : Постоянный
Битрейт : 192 Кбит/сек
Каналы : 2 канала
Channel layout : L R
Частота : 48,0 КГц
Частота кадров : 31,250 кадров/сек (1536 SPF)
Метод сжатия : С потерями
Размер потока : 132 Мбайт (2%)
Заголовок : MVO [@[email protected]] MediaBit
Язык : Russian
Service kind : Complete Main
Default : Да
Forced : Нет

Аудио #2
Идентификатор : 3
Формат : AC-3
Формат/Информация : Audio Coding 3
Коммерческое название : Dolby Digital
Идентификатор кодека : A_AC3
Продолжительность : 1 ч. 36 м.
Вид битрейта : Постоянный
Битрейт : 640 Кбит/сек
Каналы : 6 каналов
Channel layout : L R C LFE Ls Rs
Частота : 48,0 КГц
Частота кадров : 31,250 кадров/сек (1536 SPF)
Метод сжатия : С потерями
Размер потока : 441 Мбайт (6%)
Заголовок : Original
Язык : English
Service kind : Complete Main
Default : Нет
Forced : Нет

Текст #1
Идентификатор : 4
Формат : UTF-8
Идентификатор кодека : S_TEXT/UTF8
Идентификатор кодека/Информация : UTF-8 Plain Text
Продолжительность : 1 ч. 32 м.
Битрейт : 38 бит/сек
Count of elements : 1003
Размер потока : 25,9 Кбайт (0%)
Язык : English
Default : Нет
Forced : Нет

Текст #2
Идентификатор : 5
Формат : UTF-8
Идентификатор кодека : S_TEXT/UTF8
Идентификатор кодека/Информация : UTF-8 Plain Text
Продолжительность : 1 ч. 35 м.
Битрейт : 42 бит/сек
Count of elements : 1212
Размер потока : 29,8 Кбайт (0%)
Заголовок : SDH
Язык : English
Default : Нет
Forced : Нет


Релиз от:

Download
Для скачивания .torrent файлов необходима регистрация
Сайт не распространяет и не хранит электронные версии произведений, а лишь предоставляет доступ к создаваемому пользователями каталогу ссылок на торрент-файлы, которые содержат только списки хеш-сумм

Страница 1 из 1

Ответить на тему

   Похожие торренты   Торрент 




tracker_crontracker_cron