Регистрация ·  Логин: Пароль: Запомнить   · Забыли пароль?




Ответить на тему
Статистика раздачи
Размер: 1.48 ГБ | Зарегистрирован: 13 окт 2020, 17:19 | .torrent скачан: 0 раз(а), DHT: [ 0 ] раз(а)
Сидеров: [ 2  | 0 байт/сек ]   Личеров: [ 1  | 0 байт/сек ]   DHT: [ 2 / 1 ]
Автор Сообщение

Модератор

С нами: 2 года 5 месяцев
Сообщения: 3401
Россия

Сообщение 13 окт 2020, 17:19 

[Цитировать]


Информация о фильме
Название: Таинственный сад
Оригинальное название: The Secret Garden
Год выхода: 2020
Жанр: Фэнтези, приключения, семейный
Режиссер: Марк Манден

В ролях: Дикси Эгерикс, Колин Фёрт, Джули Уолтерс, Эдан Хэйхёрст, Амир Уилсон, Айзис Дэвис, Мейв Дермоди, Соня Госвами, Пол Дин-Келли, Энн Лэйси, Руперт Янг, Джемма Пауэлл, Соня Госвами, Пол Дин-Келли, Альберт Джаннителли, Абдул Хаким Джой

О фильме:
Внезапно осиротевшая девочка Мэри вынуждена переехать в окутанный тайнами особняк своего дяди в Англии. Правилами строго запрещено выходить из своей комнаты и бродить по коридорам огромного дома, но однажды Мэри обнаруживает потайную дверь, ведущую в удивительный мир, где исполняются любые желания – таинственный сад.



Страна: Великобритания, Франция, США, Китай
Студия: Canal+ [fr], Fundamental Films, Ciné, Heyday Films, Studio Canal, STX Films
Продолжительность: 01:39:42
Перевод: Дублированный | iTunes
Субтитры: Русские, английские

Файл
Формат: Matroska
Качество: WEB-DLRip-AVC [The.Secret.Garden.2020.1080p.WEBRip.DD5.1.x264-CM]
Видео: 960x518 at 23.976 fps, [email protected], ~1732 kbps
Аудио: AC3, 6 ch, ~384 kbps - | Русский | -
Формат субтитров: softsub (SRT)
► Без Рекламы!

***Релиз от: -=DoMiNo=-

x264 [info]: frame I:1002 Avg QP:17.31 size: 65159
x264 [info]: frame P:33604 Avg QP:19.11 size: 20130
x264 [info]: frame B:108885 Avg QP:21.38 size: 5086
x264 [info]: consecutive B-frames: 4.0% 3.2% 9.8% 15.1% 7.4% 57.6% 1.6% 0.4% 0.3% 0.2% 0.3%

General :
Format : Matroska
Format version : Version 4
File size : 1.48 GiB
Duration : 1 h 39 min
Overall bit rate : 2 118 kb/s
Movie name : Таинственный сад.(2020).WEB-DLRip-AVC.[-=DoMiNo=-] / Таинственный сад / The Secret Garden (2020)
Encoded date : UTC 2020-09-01 06:30:04
Writing application : mkvmerge v49.0.0 ('Sick Of Losing Soulmates') 64-bit
Writing library : libebml v1.4.0 + libmatroska v1.6.1
Cover : Yes
Attachments : Cover.jpg / Cover 2.jpg

Video
ID : 1
Format : AVC
Format/Info : Advanced Video Codec
Format profile : [email protected]
Format settings : CABAC / 10 Ref Frames
Format settings, CABAC : Yes
Format settings, Reference : 10 frames
Codec ID : V_MPEG4/ISO/AVC
Duration : 1 h 39 min
Bit rate : 1 732 kb/s
Width : 960 pixels
Height : 518 pixels
Display aspect ratio : 1.85:1
Frame rate mode : Constant
Frame rate : 23.976 (24000/1001) FPS
Color space : YUV
Chroma subsampling : 4:2:0
Bit depth : 8 bits
Scan type : Progressive
Bits/(Pixel*Frame) : 0.145
Stream size : 1.21 GiB (82%)
Title : -=DoMiNo=-
Writing library : x264 core 161 r3018 db0d417
Encoding settings : cabac=1 / ref=10 / deblock=1:-3:-3 / analyse=0x3:0x133 / me=umh / subme=10 / psy=1 / psy_rd=1.00:0.00 / mixed_ref=1 / me_range=32 / chroma_me=1 / trellis=2 / 8x8dct=1 / cqm=0 / deadzone=21,11 / fast_pskip=0 / chroma_qp_offset=-2 / threads=6 / lookahead_threads=1 / sliced_threads=0 / nr=0 / decimate=1 / interlaced=0 / bluray_compat=0 / constrained_intra=0 / bframes=10 / b_pyramid=2 / b_adapt=2 / b_bias=0 / direct=1 / weightb=1 / open_gop=0 / weightp=2 / keyint=250 / keyint_min=23 / scenecut=40 / intra_refresh=0 / rc_lookahead=60 / rc=crf / mbtree=0 / crf=19.5 / qcomp=0.60 / qpmin=0 / qpmax=69 / qpstep=4 / vbv_maxrate=50000 / vbv_bufsize=62500 / crf_max=0.0 / nal_hrd=none / filler=0 / ip_ratio=1.40 / pb_ratio=1.30 / aq=3:0.80
Language : English
Default : Yes
Forced : No
Color range : Limited
Color primaries : BT.709
Transfer characteristics : BT.709
Matrix coefficients : BT.709

Audio
ID : 2
Format : AC-3
Format/Info : Audio Coding 3
Commercial name : Dolby Digital
Codec ID : A_AC3
Duration : 1 h 39 min
Bit rate mode : Constant
Bit rate : 384 kb/s
Channel(s) : 6 channels
Channel layout : L R C LFE Ls Rs
Sampling rate : 48.0 kHz
Frame rate : 31.250 FPS (1536 SPF)
Compression mode : Lossy
Stream size : 274 MiB (18%)
Title : DUB
Language : Russian
Service kind : Complete Main
Default : Yes
Forced : No

Text #1
ID : 3
Format : UTF-8
Codec ID : S_TEXT/UTF8
Codec ID/Info : UTF-8 Plain Text
Duration : 1 h 33 min
Bit rate : 59 b/s
Count of elements : 898
Stream size : 40.7 KiB (0%)
Title : 2150
Language : Russian
Default : No
Forced : No

Text #2
ID : 4
Format : UTF-8
Codec ID : S_TEXT/UTF8
Codec ID/Info : UTF-8 Plain Text
Duration : 1 h 32 min
Bit rate : 43 b/s
Count of elements : 1040
Stream size : 29.6 KiB (0%)
Title : 2150
Language : English
Default : No
Forced : No

Menu
00:00:00.000 : :Глава 01
00:07:30.000 : :Глава 02
00:15:00.000 : :Глава 03
00:22:30.000 : :Глава 04
00:30:00.000 : :Глава 05
00:37:30.000 : :Глава 06
00:45:00.000 : :Глава 07
00:52:30.000 : :Глава 08
01:00:00.000 : :Глава 09
01:07:30.000 : :Глава 10
01:15:00.000 : :Глава 11
01:22:30.000 : :Глава 12
01:30:00.000 : :Глава 13
01:37:30.000 : :Глава 14


Download
Для скачивания .torrent файлов необходима регистрация
Сайт не распространяет и не хранит электронные версии произведений, а лишь предоставляет доступ к создаваемому пользователями каталогу ссылок на торрент-файлы, которые содержат только списки хеш-сумм

Страница 1 из 1

Ответить на тему

   Похожие торренты   Торрент