Регистрация ·  Логин: Пароль: Запомнить   · Забыли пароль?




Ответить на тему
Статистика раздачи
Размер: 10.95 ГБ | Зарегистрирован: 13 окт 2020, 17:19 | .torrent скачан: 0 раз(а), DHT: [ 14 ] раз(а)
Сидеров: [ 10  | 0 байт/сек ]   Личеров: [ 2  | 0 байт/сек ]   DHT: [ 10 / 2 ]
Автор Сообщение

Модератор

С нами: 2 года 5 месяцев
Сообщения: 3401
Россия

Сообщение 13 окт 2020, 17:19 

[Цитировать]


Информация о фильме
Название: Таинственный сад
Оригинальное название: The Secret Garden
Год выхода: 2020
Жанр: Фэнтези, приключения, семейный
Режиссер: Марк Манден
В ролях: Дикси Эгерикс, Колин Фёрт, Джули Уолтерс, Эдан Хэйхёрст, Амир Уилсон, Айзис Дэвис, Мейв Дермоди, Соня Госвами, Пол Дин-Келли, Энн Лэйси, Руперт Янг, Джемма Пауэлл, Альберт Джаннителли, Абдул Хаким Джой



О фильме: Внезапно осиротевшая девочка Мэри вынуждена переехать в окутанный тайнами особняк своего дяди в Англии. Правилами строго запрещено выходить из своей комнаты и бродить по коридорам огромного дома, но однажды Мэри обнаруживает потайную дверь, ведущую в удивительный мир, где исполняются любые желания – таинственный сад.

Страна: Великобритания, Франция, США, Китай
Студия: Canal+ [fr], Fundamental Films, Ciné, Heyday Films, Studio Canal, STX Films
Продолжительность: 01:39:44
Перевод: Дублированный | iTunes

Качество: WEB-DL 2160p
Видео: 3840x2160 at 23.976 fps, MPEG-H HEVC SDR Video, 15000 kbps avg
Аудио #01: 48 kHz, AC3, 5.1, 384 Kbps | iTunes | RUS |
Аудио #02: 48 kHz, AC3, 5.1, 384 Kbps | Оригинал | ENG |
Субтитры: Русские (Full), английские



General
Unique ID : 297280989911779311921325975754476345221 (0xDFA63C6CE8AC0D47E72DAF3F2917D785)
Complete name : D:Video111The.Secret.Garden.WEB-DL.2160p.SDR.seleZen.mkv
Format : Matroska
Format version : Version 4
File size : 11.0 GiB
Duration : 1 h 39 min
Overall bit rate : 15.7 Mb/s
Movie name : The Secret Garden.2020 from селезень
Encoded date : UTC 2020-08-31 21:47:35
Writing application : mkvmerge v40.0.0 ('Old Town Road + Pony') 64-bit
Writing library : libebml v1.3.9 + libmatroska v1.5.2

Video
ID : 1
Format : HEVC
Format/Info : High Efficiency Video Coding
Format profile : [email protected]@Main
Codec ID : V_MPEGH/ISO/HEVC
Duration : 1 h 39 min
Bit rate : 15.0 Mb/s
Width : 3 840 pixels
Height : 2 160 pixels
Display aspect ratio : 16:9
Frame rate mode : Constant
Frame rate : 23.976 (24000/1001) FPS
Color space : YUV
Chroma subsampling : 4:2:0
Bit depth : 8 bits
Bits/(Pixel*Frame) : 0.075
Stream size : 10.4 GiB (95%)
Language : English
Default : Yes
Forced : No
Color range : Limited
Color primaries : BT.709
Transfer characteristics : BT.709
Matrix coefficients : BT.709

Audio #1
ID : 2
Format : AC-3
Format/Info : Audio Coding 3
Commercial name : Dolby Digital
Codec ID : A_AC3
Duration : 1 h 39 min
Bit rate mode : Constant
Bit rate : 384 kb/s
Channel(s) : 6 channels
Channel layout : L R C LFE Ls Rs
Sampling rate : 48.0 kHz
Frame rate : 31.250 FPS (1536 SPF)
Compression mode : Lossy
Stream size : 274 MiB (2%)
Title : iTunes
Language : Russian
Service kind : Complete Main
Default : Yes
Forced : Yes

Audio #2
ID : 3
Format : AC-3
Format/Info : Audio Coding 3
Commercial name : Dolby Digital
Codec ID : A_AC3
Duration : 1 h 39 min
Bit rate mode : Constant
Bit rate : 384 kb/s
Channel(s) : 6 channels
Channel layout : L R C LFE Ls Rs
Sampling rate : 48.0 kHz
Frame rate : 31.250 FPS (1536 SPF)
Compression mode : Lossy
Stream size : 274 MiB (2%)
Title : Original
Language : English
Service kind : Complete Main
Default : No
Forced : No

Text #1
ID : 4
Format : UTF-8
Codec ID : S_TEXT/UTF8
Codec ID/Info : UTF-8 Plain Text
Duration : 1 h 33 min
Bit rate : 59 b/s
Count of elements : 898
Stream size : 40.7 KiB (0%)
Title : Full
Language : Russian
Default : No
Forced : No

Text #2
ID : 5
Format : UTF-8
Codec ID : S_TEXT/UTF8
Codec ID/Info : UTF-8 Plain Text
Duration : 1 h 32 min
Bit rate : 43 b/s
Count of elements : 1040
Stream size : 29.6 KiB (0%)
Title : SDH
Language : English
Default : No
Forced : No


Релиз от: Присоединяйся к:



Download
Для скачивания .torrent файлов необходима регистрация
Сайт не распространяет и не хранит электронные версии произведений, а лишь предоставляет доступ к создаваемому пользователями каталогу ссылок на торрент-файлы, которые содержат только списки хеш-сумм

Страница 1 из 1

Ответить на тему

   Похожие торренты   Торрент