Регистрация ·  Логин: Пароль: Запомнить   · Забыли пароль?




Ответить на тему
Статистика раздачи
Размер: 1.85 ГБ | Зарегистрирован: 13 окт 2020, 17:18 | .torrent скачан: 0 раз(а), DHT: [ 0 ] раз(а)
Сидеров: [ 0  | 0 байт/сек ]   Личеров: [ 0  | 0 байт/сек ]   DHT: [ 0 / 0 ]
Автор Сообщение

Модератор

С нами: 2 года 4 месяца
Сообщения: 3361
Россия

Сообщение 13 окт 2020, 17:18 

[Цитировать]

Пока свадьба не разлучит нас / Hasta que la boda nos separe / The Wedding Unplanner

Информация о фильме:
Название: Пока свадьба не разлучит нас
Оригинальное название: Hasta que la boda nos separe / The Wedding Unplanner
Год выхода: 2020
Жанр: Мелодрама, комедия
Режиссер: Дани де ла Орден
В ролях: Белен Куэста, Алехандро Гарсия, Сильвия Алонсо, Антонио Дечент, Мариам Эрнандес, Грасия Олайо, Сальва Реина, Рикардо Кастелла, Жорже Понсе, Эрнесто Севилья и др.
Описание: Марину все устраивает: любимая работа, яркие вечеринки с друзьями, отношения без обязательств. Все меняется, когда она встречает мужчину своей мечты. Но есть всего одна проблема — он собирается жениться на ее лучшей подруге…

Страна: Испания
Студия: Capella Film
Продолжительность: 01:50:34
Перевод: Профессиональный (многоголосый, закадровый) - iTunes

Информация о файле:
Кодек: AVC
Формат: MKV
Качество: HDRip-AVC
Видео: MPEG-4 AVC, 1024x430 (2.40:1), 2012 kbps, 24.000 fps, 0.190
Аудио RU: AC3, 6 ch, 48 kHz, 384 kbps
Субтитры: Русские (форс.)
Навигация по главам: Есть

Трейлер

General
Unique ID : 262959409000422317089827434673085156748 (0xC5D423D6BA2F7896FCC615BB07F90D8C)
Complete name : D:uTorrentРипы_от_wolf1245_MediaBitPokaSvadbaNeRazluchitNas.HDRip-AVC_wolf1245 & MediaBit.mkv
Format : Matroska
Format version : Version 4
File size : 1.85 GiB
Duration : 1 h 50 min
Overall bit rate : 2 398 kb/s
Movie name : Hasta que la boda nos separe / The Wedding Unplanner (2020)_wolf1245 & MediaBit
Encoded date : UTC 2020-08-31 07:48:26
Writing application : mkvmerge v49.0.0 ('Sick Of Losing Soulmates') 64-bit
Writing library : libebml v1.4.0 + libmatroska v1.6.1
Cover : Yes
Attachments : Covers.png
Video
ID : 1
Format : AVC
Format/Info : Advanced Video Codec
Format profile : [email protected]
Format settings : CABAC / 11 Ref Frames
Format settings, CABAC : Yes
Format settings, Reference frames : 11 frames
Codec ID : V_MPEG4/ISO/AVC
Duration : 1 h 50 min
Bit rate : 2 012 kb/s
Width : 1 024 pixels
Height : 430 pixels
Display aspect ratio : 2.40:1
Frame rate mode : Constant
Frame rate : 24.000 FPS
Color space : YUV
Chroma subsampling : 4:2:0
Bit depth : 8 bits
Scan type : Progressive
Bits/(Pixel*Frame) : 0.190
Stream size : 1.55 GiB (84%)
Title : wolf1245 & MediaBit
Writing library : x264 core 157 r2958 57baac4
Encoding settings : cabac=1 / ref=11 / deblock=1:-3:-3 / analyse=0x3:0x133 / me=umh / subme=11 / psy=1 / psy_rd=1.00:0.15 / mixed_ref=1 / me_range=48 / chroma_me=1 / trellis=2 / 8x8dct=1 / cqm=0 / deadzone=21,11 / fast_pskip=0 / chroma_qp_offset=-3 / threads=10 / lookahead_threads=2 / sliced_threads=0 / nr=0 / decimate=0 / interlaced=0 / bluray_compat=0 / constrained_intra=0 / bframes=11 / b_pyramid=2 / b_adapt=2 / b_bias=4 / direct=3 / weightb=1 / open_gop=0 / weightp=2 / keyint=240 / keyint_min=24 / scenecut=40 / intra_refresh=0 / rc_lookahead=60 / rc=2pass / mbtree=0 / bitrate=2012 / ratetol=1.0 / qcomp=0.60 / qpmin=0 / qpmax=69 / qpstep=4 / cplxblur=20.0 / qblur=0.5 / vbv_maxrate=50000 / vbv_bufsize=62500 / nal_hrd=none / filler=0 / ip_ratio=1.40 / pb_ratio=1.30 / aq=1:1.00
Language : Spanish
Default : Yes
Forced : No
Audio
ID : 2
Format : AC-3
Format/Info : Audio Coding 3
Commercial name : Dolby Digital
Codec ID : A_AC3
Duration : 1 h 50 min
Bit rate mode : Constant
Bit rate : 384 kb/s
Channel(s) : 6 channels
Channel layout : L R C LFE Ls Rs
Sampling rate : 48.0 kHz
Frame rate : 31.250 FPS (1536 SPF)
Compression mode : Lossy
Stream size : 304 MiB (16%)
Title : MVO | iTunes
Language : Russian
Service kind : Complete Main
Default : Yes
Forced : No
Text
ID : 3
Format : UTF-8
Codec ID : S_TEXT/UTF8
Codec ID/Info : UTF-8 Plain Text
Duration : 57 min 27 s
Bit rate : 2 b/s
Count of elements : 20
Stream size : 1.09 KiB (0%)
Title : RUS Forced
Language : Russian
Default : Yes
Forced : No
Menu
00:00:00.000 : :Chapter 1
00:08:12.291 : :Chapter 2
00:18:08.916 : :Chapter 3
00:28:28.291 : :Chapter 4
00:37:13.583 : :Chapter 5
00:46:38.416 : :Chapter 6
00:55:44.500 : :Chapter 7
01:05:45.583 : :Chapter 8
01:15:34.791 : :Chapter 9
01:25:18.291 : :Chapter 10
01:34:08.208 : :Chapter 11
01:42:23.125 : :Chapter 12

Релиз от: &

Download
Для скачивания .torrent файлов необходима регистрация
Сайт не распространяет и не хранит электронные версии произведений, а лишь предоставляет доступ к создаваемому пользователями каталогу ссылок на торрент-файлы, которые содержат только списки хеш-сумм

Страница 1 из 1

Ответить на тему

   Похожие торренты   Торрент 




tracker_crontracker_cron