Регистрация ·  Логин: Пароль: Запомнить   · Забыли пароль?




Ответить на тему
Статистика раздачи
Размер: 1.77 ГБ | Зарегистрирован: 13 окт 2020, 17:17 | .torrent скачан: 0 раз(а), DHT: [ 0 ] раз(а)
Сидеров: [ 0  | 0 байт/сек ]   Личеров: [ 0  | 0 байт/сек ]   DHT: [ 0 / 0 ]
Автор Сообщение

Модератор

С нами: 2 года 4 месяца
Сообщения: 3361
Россия

Сообщение 13 окт 2020, 17:17 

[Цитировать]

Где моя челюсть, чувак / War with Grandpa

Информация о фильме:
Название: Где моя челюсть, чувак
Оригинальное название: War with Grandpa
Год выхода: 2020
Жанр: Комедия, семейный
Режиссер: Тим Хилл
В ролях: Роберт Де Ниро, Оакс Фигли, Кристофер Уокен, Ума Турман, Джейн Сеймур, Роб Риггл, Лора Марано, Колин Форд, Т.Дж. МакГиббон, Чич Марин
Описание: В основе сюжета лежит одноимённый роман Роберта Киммела Смита, который рассказывает историю десятилетнего Питера Стокса. Он очень своенравный мальчик, обожающий свою комнату и оберегающий её ценой собственной жизни. Также главный герой очень любит своего дедушку, но он резко портит с ним отношения, когда тот, овдовев, переезжает в дом к Питеру и занимает его комнату. У мальчика нет другого выбора, кроме как вернуть себе принадлежащее по праву при помощи самых дерзких шалостей, которые вытекают в настояшую войну.

Страна: США
Студия: Marro Films, Emmett/Furla/Oasis Films (EFO Films), TRI G
Продолжительность: 01:38:10
Перевод: Любительский (многоголосый, закадровый) - AlphaProject

Информация о файле:
Кодек: AVC
Формат: MKV
Качество: WEB-DLRip-AVC
Видео: MPEG-4 AVC, 1024x552 (1.85:1), 2010 kbps, 24.000 fps, 0.148
Аудио RU: AC3, 2 ch, 48 kHz, 192 kbps
Аудио EN: AC3, 6 ch, 48 kHz, 384 kbps

Трейлер


x264 info: frame I:1977 Avg QP:16.55 size: 89385
x264 info: frame P:32563 Avg QP:19.85 size: 21467
x264 info: frame B:106820 Avg QP:21.66 size: 5643
General
Unique ID : 10748813898294701912988776477185060203 (0x8162570FD61E8A9E7A785208340AD6B)
Complete name : D:uTorrentГде моя челюсть, чувак - War with Grandpa (2020)_wolf1245_MediaBit.mkv
Format : Matroska
Format version : Version 4
File size : 1.77 GiB
Duration : 1 h 38 min
Overall bit rate : 2 586 kb/s
Movie name : Где моя челюсть, чувак / War with Grandpa (2020)_wolf1245_MediaBit
Encoded date : UTC 2020-08-29 20:49:29
Writing application : mkvmerge v49.0.0 ('Sick Of Losing Soulmates') 64-bit
Writing library : libebml v1.4.0 + libmatroska v1.6.1
Cover : Yes
Attachments : Cover.jpg
Video
ID : 2
Format : AVC
Format/Info : Advanced Video Codec
Format profile : [email protected]
Format settings : CABAC / 11 Ref Frames
Format settings, CABAC : Yes
Format settings, Reference frames : 11 frames
Codec ID : V_MPEG4/ISO/AVC
Duration : 1 h 38 min
Bit rate : 2 010 kb/s
Width : 1 024 pixels
Height : 552 pixels
Display aspect ratio : 1.85:1
Frame rate mode : Constant
Frame rate : 24.000 FPS
Color space : YUV
Chroma subsampling : 4:2:0
Bit depth : 8 bits
Scan type : Progressive
Bits/(Pixel*Frame) : 0.148
Stream size : 1.38 GiB (78%)
Title : wolf1245_MediaBit
Writing library : x264 core 157 r2958 57baac4
Encoding settings : cabac=1 / ref=11 / deblock=1:-3:-3 / analyse=0x3:0x133 / me=umh / subme=11 / psy=1 / psy_rd=1.00:0.15 / mixed_ref=1 / me_range=48 / chroma_me=1 / trellis=2 / 8x8dct=1 / cqm=0 / deadzone=21,11 / fast_pskip=0 / chroma_qp_offset=-3 / threads=10 / lookahead_threads=2 / sliced_threads=0 / nr=0 / decimate=0 / interlaced=0 / bluray_compat=0 / constrained_intra=0 / bframes=10 / b_pyramid=2 / b_adapt=2 / b_bias=4 / direct=3 / weightb=1 / open_gop=0 / weightp=2 / keyint=240 / keyint_min=24 / scenecut=40 / intra_refresh=0 / rc_lookahead=60 / rc=2pass / mbtree=0 / bitrate=2010 / ratetol=1.0 / qcomp=0.60 / qpmin=0 / qpmax=69 / qpstep=4 / cplxblur=20.0 / qblur=0.5 / vbv_maxrate=50000 / vbv_bufsize=62500 / nal_hrd=none / filler=0 / ip_ratio=1.40 / pb_ratio=1.30 / aq=1:1.00
Language : English
Default : Yes
Forced : No
Color range : Limited
Color primaries : BT.709
Transfer characteristics : BT.709
Matrix coefficients : BT.709
Audio #1
ID : 1
Format : AC-3
Format/Info : Audio Coding 3
Commercial name : Dolby Digital
Codec ID : A_AC3
Duration : 1 h 38 min
Bit rate mode : Constant
Bit rate : 192 kb/s
Channel(s) : 2 channels
Channel layout : L R
Sampling rate : 48.0 kHz
Frame rate : 31.250 FPS (1536 SPF)
Compression mode : Lossy
Stream size : 135 MiB (7%)
Title : MVO | AlphaProject | MediaBit
Language : Russian
Service kind : Complete Main
Default : Yes
Forced : No
Audio #2
ID : 3
Format : AC-3
Format/Info : Audio Coding 3
Commercial name : Dolby Digital
Codec ID : A_AC3
Duration : 1 h 38 min
Bit rate mode : Constant
Bit rate : 384 kb/s
Channel(s) : 6 channels
Channel layout : L R C LFE Ls Rs
Sampling rate : 48.0 kHz
Frame rate : 31.250 FPS (1536 SPF)
Compression mode : Lossy
Stream size : 270 MiB (15%)
Title : Original
Language : English
Service kind : Complete Main
Default : No
Forced : No

Релиз от: &

Download
Для скачивания .torrent файлов необходима регистрация
Сайт не распространяет и не хранит электронные версии произведений, а лишь предоставляет доступ к создаваемому пользователями каталогу ссылок на торрент-файлы, которые содержат только списки хеш-сумм

Страница 1 из 1

Ответить на тему

   Похожие торренты   Торрент 




tracker_crontracker_cron