Регистрация ·  Логин: Пароль: Запомнить   · Забыли пароль?




Ответить на тему
Статистика раздачи
Размер: 728.27 МБ | Зарегистрирован: 13 окт 2020, 17:17 | .torrent скачан: 0 раз(а), DHT: [ 3 ] раз(а)
Сидеров: [ 2  | 0 байт/сек ]   Личеров: [ 2  | 0 байт/сек ]   DHT: [ 2 / 2 ]
Автор Сообщение

Модератор

С нами: 2 года 4 месяца
Сообщения: 3361
Россия

Сообщение 13 окт 2020, 17:17 

[Цитировать]


Информация о фильме
Название: Залив тишины
Оригинальное название: The Bay of Silence
Год выхода: 2020
Жанр: Триллер, драма
Режиссер: Паула ван дер Уст

В ролях: Клас Банг, Ольга Куриленко, Брайан Кокс, Ассаад Буаб, Элис Крайдж, Кэролайн Гудолл, Шалиша Джеймс-Дэвис, Литиана Биутанасева, Лилибет Биутанасева, Дункан Дафф

О фильме:
Розалинд и Уилл готовятся к рождению ребенка, но несчастный случай меняет их идеальную семейную жизнь. Теперь мужу придется узнать все о прошлом жены, которое она так тщательно скрывала. В один день Розалинд внезапно исчезает вместе с детьми. Уилл отправляется на поиски и находит ее в каком-то заброшенном доме в Нормандии. Однако счастливое воссоединение оборачивается очередным кошмаром.



Страна: Великобритания
Студия: Tbos Film, Imperative Entertainment, Levitate Film
Продолжительность: 01:33:28
Перевод: Дублированный | iTunes
Субтитры: Русские (Full), английские

Файл
Формат: Matroska
Качество: WEB-DLRip-AVC
Видео: 960x402 at 23.976 fps, [email protected], ~992 kbps
Аудио: AAC, 2 ch, ~96 kbps
Формат субтитров: softsub (SRT)

***Релиз от: -=DoMiNo=-

x264 [info]: frame I:1029 Avg QP:15.68 size: 46503
x264 [info]: frame P:26906 Avg QP:16.98 size: 12445
x264 [info]: frame B:106544 Avg QP:18.59 size: 2938
x264 [info]: consecutive B-frames: 1.7% 1.5% 6.6% 12.4% 6.5% 67.0% 1.9% 0.5% 0.4% 0.4% 0.2%

General
Format : Matroska
Format version : Version 4
File size : 728 MiB
Duration : 1 h 33 min
Overall bit rate : 1 089 kb/s
Movie name : Залив тишины / The Bay of Silence (2020) / Залив тишины.(2020).WEB-DLRip-AVC.[-=DoMiNo=-]
Encoded date : UTC 2020-08-29 16:07:44
Writing application : mkvmerge v49.0.0 ('Sick Of Losing Soulmates') 64-bit
Writing library : libebml v1.4.0 + libmatroska v1.6.1
Cover : Yes
Attachments : Cover.jpg / Cover 2.jpg

Video
ID : 1
Format : AVC
Format/Info : Advanced Video Codec
Format profile : [email protected]
Format settings : CABAC / 10 Ref Frames
Format settings, CABAC : Yes
Format settings, Reference : 10 frames
Codec ID : V_MPEG4/ISO/AVC
Duration : 1 h 33 min
Bit rate : 992 kb/s
Width : 960 pixels
Height : 402 pixels
Display aspect ratio : 2.40:1
Frame rate mode : Constant
Frame rate : 23.976 (24000/1001) FPS
Color space : YUV
Chroma subsampling : 4:2:0
Bit depth : 8 bits
Scan type : Progressive
Bits/(Pixel*Frame) : 0.107
Stream size : 664 MiB (91%)
Title : -=DoMiNo=-
Writing library : x264 core 161 r3018 db0d417
Encoding settings : cabac=1 / ref=10 / deblock=1:-3:-3 / analyse=0x3:0x133 / me=umh / subme=10 / psy=1 / psy_rd=1.00:0.20 / mixed_ref=1 / me_range=32 / chroma_me=1 / trellis=2 / 8x8dct=1 / cqm=0 / deadzone=21,11 / fast_pskip=0 / chroma_qp_offset=-3 / threads=6 / lookahead_threads=1 / sliced_threads=0 / nr=0 / decimate=1 / interlaced=0 / bluray_compat=0 / constrained_intra=0 / bframes=10 / b_pyramid=2 / b_adapt=2 / b_bias=0 / direct=1 / weightb=1 / open_gop=0 / weightp=2 / keyint=250 / keyint_min=23 / scenecut=40 / intra_refresh=0 / rc_lookahead=60 / rc=crf / mbtree=0 / crf=19.5 / qcomp=0.60 / qpmin=0 / qpmax=69 / qpstep=4 / vbv_maxrate=50000 / vbv_bufsize=62500 / crf_max=0.0 / nal_hrd=none / filler=0 / ip_ratio=1.40 / pb_ratio=1.30 / aq=1:1.00
Language : English
Default : Yes
Forced : No
Color range : Limited
Color primaries : BT.709
Transfer characteristics : BT.709
Matrix coefficients : BT.709

Audio
ID : 2
Format : AAC LC SBR
Format/Info : Advanced Audio Codec Low Complexity with Spectral Band Replication
Commercial name : HE-AAC
Format settings : Explicit
Codec ID : A_AAC-2
Duration : 1 h 33 min
Bit rate : 96.0 kb/s
Channel(s) : 2 channels
Channel layout : L R
Sampling rate : 48.0 kHz
Frame rate : 23.438 FPS (2048 SPF)
Compression mode : Lossy
Stream size : 63.3 MiB (9%)
Title : DUB
Language : Russian
Default : Yes
Forced : No

Text #1
ID : 3
Format : UTF-8
Codec ID : S_TEXT/UTF8
Codec ID/Info : UTF-8 Plain Text
Duration : 1 h 23 min
Bit rate : 66 b/s
Count of elements : 904
Stream size : 40.8 KiB (0%)
Language : Russian
Default : No
Forced : No

Text #2
ID : 4
Format : UTF-8
Codec ID : S_TEXT/UTF8
Codec ID/Info : UTF-8 Plain Text
Duration : 1 h 23 min
Bit rate : 37 b/s
Count of elements : 904
Stream size : 22.8 KiB (0%)
Language : English
Default : No
Forced : No

Menu
00:00:00.000 : :Глава 01
00:07:30.000 : :Глава 02
00:15:00.000 : :Глава 03
00:22:30.000 : :Глава 04
00:30:00.000 : :Глава 05
00:37:30.000 : :Глава 06
00:45:00.000 : :Глава 07
00:52:30.000 : :Глава 08
01:00:00.000 : :Глава 09
01:07:30.000 : :Глава 10
01:15:00.000 : :Глава 11
01:22:30.000 : :Глава 12
01:30:00.000 : :Глава 13

Download
Для скачивания .torrent файлов необходима регистрация
Сайт не распространяет и не хранит электронные версии произведений, а лишь предоставляет доступ к создаваемому пользователями каталогу ссылок на торрент-файлы, которые содержат только списки хеш-сумм

Страница 1 из 1

Ответить на тему

   Похожие торренты   Торрент 




tracker_crontracker_cron