Регистрация ·  Логин: Пароль: Запомнить   · Забыли пароль?




Ответить на тему
Статистика раздачи
Размер: 4.49 ГБ | Зарегистрирован: 13 окт 2020, 17:17 | .torrent скачан: 0 раз(а), DHT: [ 0 ] раз(а)
Сидеров: [ 0  | 0 байт/сек ]   Личеров: [ 0  | 0 байт/сек ]   DHT: [ 0 / 0 ]
Автор Сообщение

Модератор

С нами: 2 года 5 месяцев
Сообщения: 3401
Россия

Сообщение 13 окт 2020, 17:17 

[Цитировать]


Информация о фильме
Название: Где моя челюсть, чувак
Оригинальное название: War with Grandpa
Год выхода: 2020
Жанр: Комедия, семейный
Режиссер: Тим Хилл
В ролях: Роберт Де Ниро, Оакс Фигли, Кристофер Уокен, Ума Турман, Джейн Сеймур, Роб Риггл, Лора Марано, Колин Форд, Т.Дж. МакГиббон, Чич Марин

О фильме: В основе сюжета лежит одноимённый роман Роберта Киммела Смита, который рассказывает историю десятилетнего Питера Стокса. Он очень своенравный мальчик, обожающий свою комнату и оберегающий её ценой собственной жизни. Также главный герой очень любит своего дедушку, но он резко портит с ним отношения, когда тот, овдовев, переезжает в дом к Питеру и занимает его комнату. У мальчика нет другого выбора, кроме как вернуть себе принадлежащее по праву при помощи самых дерзких шалостей, которые вытекают в настояшую войну.



Страна: США
Студия: Marro Films, Emmett/Furla/Oasis Films (EFO Films), TRI G
Продолжительность: 01:38:10
Перевод: Любительский многоголосый | AlphaProject

Файл
Кодек: MPEG-4 AVC
Качество: WEB-DL 1080p
Видео: 5969 Кбит/с, 1920x1080, 24.000 кадр/с
Звук:
Аудио #1: AC3, 48 Гц, 192 Кбит/сек, 2 ch (L + R) | MVO | AlphaProject
Аудио #2: AC3, 48 Гц, 384 Кбит/сек, 6 ch (L C R, + L R, LFE) | Английский


Общее
Уникальный идентификатор : 209359639786513576224529322260888370806 (0x9D81332F56F9862D6F13282DC4753E76)
Полное имя : D:ТоррентыThe War with Grandpa.2020.1080p.WEB-DL.H264.AC3-EVO[TGx]Gde.moya.chelyusti.chuvak.2020.x264.WEB-DL(1080p)-MediaBit.mkv
Формат : Matroska
Версия формата : Version 4
Размер файла : 4,49 Гбайт
Продолжительность : 1 ч. 38 м.
Общий поток : 6 546 Кбит/сек
Название фильма : Где моя челюсть, чувак / War with Grandpa (2020)
Дата кодирования : UTC 2020-08-29 10:07:31
Программа кодирования : mkvmerge v25.0.0 ('Prog Noir') 64-bit
Библиотека кодирования : libebml v1.3.6 + libmatroska v1.4.9

Видео
Идентификатор : 1
Формат : AVC
Формат/Информация : Advanced Video Codec
Профиль формата : [email protected]
Настройки формата : CABAC / 2 Ref Frames
Параметр CABAC формата : Да
Параметр RefFrames формата : 2 кадра
Идентификатор кодека : V_MPEG4/ISO/AVC
Продолжительность : 1 ч. 38 м.
Битрейт : 5 969 Кбит/сек
Ширина : 1 920 пикселей
Высота : 1 080 пикселей
Соотношение сторон : 16:9
Режим частоты кадров : Постоянный
Частота кадров : 24,000 кадра/сек
Цветовое пространство : YUV
Субдискретизация насыщенности : 4:2:0
Битовая глубина : 8 бит
Тип развёртки : Прогрессивная
Бит/(Пиксели*Кадры) : 0.120
Размер потока : 4,09 Гбайт (91%)
Заголовок : EVO
Библиотека кодирования : x264 core 155 r2901 7d0ff22
Язык : English
Default : Да
Forced : Нет
Цветовой диапазон : Limited
Основные цвета : BT.709
Характеристики трансфера : BT.709
Коэффициенты матрицы : BT.709

Аудио #1
Идентификатор : 2
Формат : AC-3
Формат/Информация : Audio Coding 3
Коммерческое название : Dolby Digital
Идентификатор кодека : A_AC3
Продолжительность : 1 ч. 38 м.
Вид битрейта : Постоянный
Битрейт : 192 Кбит/сек
Каналы : 2 канала
Channel layout : L R
Частота : 48,0 КГц
Частота кадров : 31,250 кадров/сек (1536 SPF)
Метод сжатия : С потерями
Размер потока : 135 Мбайт (3%)
Заголовок : MVO [AlphaProject] MediaBit
Язык : Russian
Service kind : Complete Main
Default : Нет
Forced : Нет

Аудио #2
Идентификатор : 3
Формат : AC-3
Формат/Информация : Audio Coding 3
Коммерческое название : Dolby Digital
Идентификатор кодека : A_AC3
Продолжительность : 1 ч. 38 м.
Вид битрейта : Постоянный
Битрейт : 384 Кбит/сек
Каналы : 6 каналов
Channel layout : L R C LFE Ls Rs
Частота : 48,0 КГц
Частота кадров : 31,250 кадров/сек (1536 SPF)
Метод сжатия : С потерями
Размер потока : 270 Мбайт (6%)
Заголовок : Original
Язык : English
Service kind : Complete Main
Default : Нет
Forced : Нет


Релиз от:


Download
Для скачивания .torrent файлов необходима регистрация
Сайт не распространяет и не хранит электронные версии произведений, а лишь предоставляет доступ к создаваемому пользователями каталогу ссылок на торрент-файлы, которые содержат только списки хеш-сумм

Страница 1 из 1

Ответить на тему

   Похожие торренты   Торрент