Регистрация ·  Логин: Пароль: Запомнить   · Забыли пароль?




Ответить на тему
Статистика раздачи
Размер: 1.46 ГБ | Зарегистрирован: 13 окт 2020, 17:17 | .torrent скачан: 0 раз(а), DHT: [ 220 ] раз(а)
Сидеров: [ 26  | 0 байт/сек ]   Личеров: [ 2  | 0 байт/сек ]   DHT: [ 26 / 2 ]
Автор Сообщение

Модератор

С нами: 2 года 4 месяца
Сообщения: 3361
Россия

Сообщение 13 окт 2020, 17:17 

[Цитировать]


Информация о фильме
Название: Где моя челюсть, чувак
Оригинальное название: War with Grandpa
Год выхода: 2020
Жанр: Комедия, семейный
Режиссер: Тим Хилл
В ролях: Роберт Де Ниро, Оакс Фигли, Кристофер Уокен, Ума Турман, Джейн Сеймур, Роб Риггл, Лора Марано, Колин Форд, Т.Дж. МакГиббон, Чич Марин

О фильме: В основе сюжета лежит одноимённый роман Роберта Киммела Смита, который рассказывает историю десятилетнего Питера Стокса. Он очень своенравный мальчик, обожающий свою комнату и оберегающий её ценой собственной жизни. Также главный герой очень любит своего дедушку, но он резко портит с ним отношения, когда тот, овдовев, переезжает в дом к Питеру и занимает его комнату. У мальчика нет другого выбора, кроме как вернуть себе принадлежащее по праву при помощи самых дерзких шалостей, которые вытекают в настояшую войну.



Страна: США
Студия: Marro Films, Emmett/Furla/Oasis Films (EFO Films), TRI G
Продолжительность: 01:38:10
Перевод: Любительский многоголосый | AlphaProject

Файл
Кодек: XviD
Качество: WEB-DLRip
Видео: 1924 Кбит/с, 720x384, 24.000 кадр/с
Звук: AC3, 48 Гц, 192 Кбит/сек, 2 ch (L + R) | MVO | AlphaProject


Общее
Полное имя : D:ТоррентыThe War with Grandpa.2020.1080p.WEB-DL.H264.AC3-EVO[TGx]Gde.moya.chelyusti.chuvak.2020.XviD.WEB-DLRip)-MediaBit.avi
Формат : AVI
Формат/Информация : Audio Video Interleave
Профиль формата : OpenDML
Размер файла : 1,46 Гбайт
Продолжительность : 1 ч. 38 м.
Общий поток : 2 128 Кбит/сек
Название фильма : War with Grandpa (2020)
Программа кодирования : Lavf58.20.100

Видео
Идентификатор : 0
Формат : MPEG-4 Visual
Профиль формата : Advanced [email protected]
Настройки формата : BVOP1 / Custom Matrix
Параметр BVOP формата : 1
Параметр QPel формата : Нет
Параметр GMC формата : Без точки перехода
Параметр матрицы формата : Выборочная
Идентификатор кодека : XVID
Идентификатор кодека/Подсказка : XviD
Продолжительность : 1 ч. 38 м.
Битрейт : 1 924 Кбит/сек
Ширина : 720 пикселей
Высота : 384 пикселя
Соотношение сторон : 1,85:1
Частота кадров : 24,000 кадра/сек
Цветовое пространство : YUV
Субдискретизация насыщенности : 4:2:0
Битовая глубина : 8 бит
Тип развёртки : Прогрессивная
Метод сжатия : С потерями
Бит/(Пиксели*Кадры) : 0.290
Размер потока : 1,32 Гбайт (90%)
Заголовок : MediaBit
Библиотека кодирования : XviD 67

Аудио
Идентификатор : 1
Формат : AC-3
Формат/Информация : Audio Coding 3
Коммерческое название : Dolby Digital
Идентификатор кодека : 2000
Продолжительность : 1 ч. 38 м.
Вид битрейта : Постоянный
Битрейт : 192 Кбит/сек
Каналы : 2 канала
Channel layout : L R
Частота : 48,0 КГц
Частота кадров : 31,250 кадров/сек (1536 SPF)
Битовая глубина : 16 бит
Метод сжатия : С потерями
Размер потока : 135 Мбайт (9%)
Выравнивание : Соединение по промежуткам
Продолжительность промежутка : 32 мс. (0,77 видеокадр)
Заголовок : MVO [AlphaProject] MediaBit
Service kind : Complete Main



Релиз от:

Download
Для скачивания .torrent файлов необходима регистрация
Сайт не распространяет и не хранит электронные версии произведений, а лишь предоставляет доступ к создаваемому пользователями каталогу ссылок на торрент-файлы, которые содержат только списки хеш-сумм

Страница 1 из 1

Ответить на тему

   Похожие торренты   Торрент 




tracker_crontracker_cron