Регистрация ·  Логин: Пароль: Запомнить   · Забыли пароль?




Ответить на тему
Статистика раздачи
Размер: 5.52 ГБ | Зарегистрирован: 13 окт 2020, 17:17 | .torrent скачан: 0 раз(а), DHT: [ 0 ] раз(а)
Сидеров: [ 0  | 0 байт/сек ]   Личеров: [ 0  | 0 байт/сек ]   DHT: [ 0 / 0 ]
Автор Сообщение

Модератор

С нами: 2 года 5 месяцев
Сообщения: 3401
Россия

Сообщение 13 окт 2020, 17:17 

[Цитировать]


Информация о фильме
Название: Дорогой дневник
Оригинальное название: DieRy
Год выхода: 2020
Жанр: Триллер
Режиссер: Дженнифер Гельфер
В ролях: Клаудиа Мари Мейлер, Киаран Бирн, Джеймс Сьюториус, Филип Александр, Томас К. Джонс, Даниэль Гулдин, Жослин Джонс, Саманта Стрелиц, Донован Паттон, Ник Мэтьюз

О фильме: Инстаграм-модель Мари Кларк получает степень магистра в области сравнительного религиоведения и прощается с тяжелым прошлым с помощью своего психиатра, доктора Брэйтона. Казалось, жизнь Мари наконец-то наладилась, однако одержимый поклонник крадет ее дневник. Извращенец начинает посылать любовные письма, сообщая, что убьет любого, кто, по его мнению, представляет для нее опасность. Когда под подозрение попадают друзья, а тел становится все больше, Мари вынуждена противостоять демонам прошлого, для того чтобы разоблачить убийцу и вернуть свою собственную жизнь.



Страна: США
Студия: Mailer Tuchman Media
Продолжительность: 01:41:41
Перевод: Любительский многоголосый | @[email protected]

Файл
Кодек: MPEG-4 AVC
Качество: WEB-DL 1080p
Видео: 7360 Кбит/с, 1920x800, 23.976 кадр/с
Звук:
Аудио #1: AC3, 48 Гц, 192 Кбит/сек, 2 ch (L + R) | MVO | @[email protected]
Аудио #2: AC3, 48 Гц, 224 Кбит/сек, 2 ch (L + R) | Английский
Субтитры: Английские


Общее
Уникальный идентификатор : 70573826245483308914081089575041800628 (0x351806474F8DD3221286BE3AB9E299B4)
Полное имя : D:ТоррентыDieRy.2020.1080p.AMZN.WEBRip.DDP2.0.x264-NTGDorogoy.dnevnik.2020.x264.WEB-DL(1080p)-MediaBit.mkv
Формат : Matroska
Версия формата : Version 4
Размер файла : 5,52 Гбайт
Продолжительность : 1 ч. 41 м.
Общий поток : 7 777 Кбит/сек
Название фильма : Дорогой дневник / DieRy (2020)
Дата кодирования : UTC 2020-08-29 09:52:37
Программа кодирования : mkvmerge v25.0.0 ('Prog Noir') 64-bit
Библиотека кодирования : libebml v1.3.6 + libmatroska v1.4.9

Видео
Идентификатор : 1
Формат : AVC
Формат/Информация : Advanced Video Codec
Профиль формата : [email protected]
Настройки формата : CABAC / 4 Ref Frames
Параметр CABAC формата : Да
Параметр RefFrames формата : 4 кадра
Идентификатор кодека : V_MPEG4/ISO/AVC
Продолжительность : 1 ч. 41 м.
Вид битрейта : Постоянный
Битрейт : 7 360 Кбит/сек
Номинальный битрейт : 10 000 Кбит/сек
Ширина : 1 920 пикселей
Высота : 800 пикселей
Соотношение сторон : 2,40:1
Режим частоты кадров : Постоянный
Частота кадров : 23,976 (24000/1001) кадра/сек
Цветовое пространство : YUV
Субдискретизация насыщенности : 4:2:0
Битовая глубина : 8 бит
Тип развёртки : Прогрессивная
Бит/(Пиксели*Кадры) : 0.200
Размер потока : 5,23 Гбайт (95%)
Заголовок : NTG
Язык : English
Default : Да
Forced : Нет
Цветовой диапазон : Limited
Основные цвета : BT.709
Характеристики трансфера : BT.709
Коэффициенты матрицы : BT.709

Аудио #1
Идентификатор : 2
Формат : AC-3
Формат/Информация : Audio Coding 3
Коммерческое название : Dolby Digital
Идентификатор кодека : A_AC3
Продолжительность : 1 ч. 41 м.
Вид битрейта : Постоянный
Битрейт : 192 Кбит/сек
Каналы : 2 канала
Channel layout : L R
Частота : 48,0 КГц
Частота кадров : 31,250 кадров/сек (1536 SPF)
Метод сжатия : С потерями
Размер потока : 140 Мбайт (2%)
Заголовок : MVO [@[email protected]] MediaBit
Язык : Russian
Service kind : Complete Main
Default : Да
Forced : Нет

Аудио #2
Идентификатор : 3
Формат : AC-3
Формат/Информация : Audio Coding 3
Коммерческое название : Dolby Digital
Идентификатор кодека : A_AC3
Продолжительность : 1 ч. 41 м.
Вид битрейта : Постоянный
Битрейт : 224 Кбит/сек
Каналы : 2 канала
Channel layout : L R
Частота : 48,0 КГц
Частота кадров : 31,250 кадров/сек (1536 SPF)
Метод сжатия : С потерями
Размер потока : 163 Мбайт (3%)
Заголовок : Original
Язык : English
Service kind : Complete Main
Default : Нет
Forced : Нет

Текст #1
Идентификатор : 4
Формат : UTF-8
Идентификатор кодека : S_TEXT/UTF8
Идентификатор кодека/Информация : UTF-8 Plain Text
Продолжительность : 1 ч. 41 м.
Битрейт : 65 бит/сек
Count of elements : 1480
Размер потока : 48,5 Кбайт (0%)
Язык : English
Default : Нет
Forced : Нет

Текст #2
Идентификатор : 5
Формат : UTF-8
Идентификатор кодека : S_TEXT/UTF8
Идентификатор кодека/Информация : UTF-8 Plain Text
Продолжительность : 1 ч. 41 м.
Битрейт : 70 бит/сек
Count of elements : 1666
Размер потока : 52,2 Кбайт (0%)
Заголовок : SDH
Язык : English
Default : Нет
Forced : Нет


Релиз от:


Download
Для скачивания .torrent файлов необходима регистрация
Сайт не распространяет и не хранит электронные версии произведений, а лишь предоставляет доступ к создаваемому пользователями каталогу ссылок на торрент-файлы, которые содержат только списки хеш-сумм

Страница 1 из 1

Ответить на тему

   Похожие торренты   Торрент