Регистрация ·  Логин: Пароль: Запомнить   · Забыли пароль?




Ответить на тему
Статистика раздачи
Размер: 2.94 ГБ | Зарегистрирован: 13 окт 2020, 17:06 | .torrent скачан: 0 раз(а), DHT: [ 0 ] раз(а)
Сидеров: [ 0  | 0 байт/сек ]   Личеров: [ 0  | 0 байт/сек ]   DHT: [ 0 / 0 ]
Автор Сообщение

Модератор

С нами: 2 года 5 месяцев
Сообщения: 3401
Россия

Сообщение 13 окт 2020, 17:06 

[Цитировать]

Информация о фильме
Название: Сила стихии
Оригинальное название: Force of Nature
Год выхода: 2020
Жанр: боевик, драма
Режиссер: Майкл Полиш
В ролях: Мэл Гибсон, Кейт Босворт, Эмиль Хирш, Дэвид Зайас, Стефани Кайо, Тайлер Джон Олсон, Уильям Кэтлетт, Джаспер Полиш, Свен Теммел, Джеси Маккинни, Рей Эрнандес, Лесли Эмметт, Анил Раман, Себастьян Васкес, Хулио Рамос Велес

О фильме: Детектив полиции в отставке во время урагана вместе с остальными жильцами оказывается в ловушке в многоэтажном здании. Там же группа опасных преступников планирует провернуть ограбление.



Выпущено: США / Emmett/Furla Films, FON Film Production, Force of Nature Film
Продолжительность: 01:34:43
Озвучивание: Дублированное | iTunes
Примечание: iTunes версия длиннее BD версии на ~ 4 минуты!

Файл
Формат: MKV
Качество: WEB-DL 720p
Видео: MPEG-4 AVC, 4065 Kb/s, 1280x536
Аудио: Russian: 48 kHz, AC3 Dolby Digital, 3/2 (L, C, R, l, r) + LFE ch, ~384 Kbps
Субтитры: Нет
Дополнительно: Сохранены оригинальные чаптеры.

Релиз группы: &

Complete name: Sila.stihii.2020.WEB-DL720p.ELEKTRI4KA.UNIONGANG.mkv
Format: Matroska
Format version: Version 4 / Version 2
File size: 2.94 GiB
Duration: 1 h 34 min
Overall bit rate: 4 451 kb/s
Movie name: .ELEKTRI4KA.UNIONGANG.
Encoded date: UTC 2020-09-12 16:09:06
Writing application: mkvmerge v8.3.0 ('Over the Horizon') 64bit
Writing library: libebml v1.3.1 + libmatroska v1.4.2
Video
ID: 1
Format: AVC
Format/Info: Advanced Video Codec
Format profile: [email protected]
Format settings, CABAC: No
Format settings, Reference frames: 2 frames
Codec ID: V_MPEG4/ISO/AVC
Duration: 1 h 34 min
Bit rate: 4 065 kb/s
Width: 1 280 pixels
Height: 536 pixels
Display aspect ratio: 2.40:1
Frame rate mode: Constant
Frame rate: 24.000 FPS
Color space: YUV
Chroma subsampling: 4:2:0
Bit depth: 8 bits
Scan type: Progressive
Bits/(Pixel*Frame): 0.247
Stream size: 2.69 GiB (91%)
Title: .ELEKTRI4KA.UNIONGANG.
Language: English
Default: Yes
Forced: No
Color range: Limited
Color primaries: BT.709
Transfer characteristics: BT.709
Matrix coefficients: BT.709
Audio
ID: 2
Format: AC-3
Format/Info: Audio Coding 3
Mode extension: CM (complete main)
Format settings, Endianness: Big
Codec ID: A_AC3
Duration: 1 h 34 min
Bit rate mode: Constant
Bit rate: 384 kb/s
Channel(s): 6 channels
Channel positions: Front: L C R, Side: L R, LFE
Sampling rate: 48.0 kHz
Frame rate: 31.250 FPS (1536 spf)
Bit depth: 16 bits
Compression mode: Lossy
Stream size: 260 MiB (9%)
Title: iTunes
Language: Russian
Default: Yes
Forced: No
Menu
00:00:00.000: en:Глава 1
00:09:00.833: en:Глава 2
00:17:30.499: en:Глава 3
00:26:29.915: en:Глава 4
00:35:09.873: en:Глава 5
00:43:25.831: en:Глава 6
00:51:58.122: en:Глава 7
01:00:26.538: en:Глава 8
01:08:35.121: en:Глава 9
01:17:09.246: en:Глава 10
01:25:45.204: en:Глава 11


Download
Для скачивания .torrent файлов необходима регистрация
Сайт не распространяет и не хранит электронные версии произведений, а лишь предоставляет доступ к создаваемому пользователями каталогу ссылок на торрент-файлы, которые содержат только списки хеш-сумм

Страница 1 из 1

Ответить на тему

   Похожие торренты   Торрент