Регистрация ·  Логин: Пароль: Запомнить   · Забыли пароль?




Ответить на тему
Статистика раздачи
Размер: 2.04 ГБ | Зарегистрирован: 13 окт 2020, 17:06 | .torrent скачан: 0 раз(а), DHT: [ 2084 ] раз(а)
Сидеров: [ 109  | 0 байт/сек ]   Личеров: [ 3  | 0 байт/сек ]   DHT: [ 109 / 3 ]
Автор Сообщение

Модератор

С нами: 2 года 4 месяца
Сообщения: 3361
Россия

Сообщение 13 окт 2020, 17:06 

[Цитировать]


Информация о фильме
Название: #выжить
Оригинальное название: #saraitta / #alive
Год выхода: 2020
Жанр: ужасы, боевик
Режиссер: Иль Хён Чо
В ролях: А Ин Ю, Шин Хе Пак, Пэ Су Чон, Хён Ук Ли, Хэ Вон О, Хак Сон Ким, Хи Чжон Со, Бо Би Чжу, Ун Джон Чон, Чхэ Гён Ли, Дон Гю Ли, Юн Хо Пак


Молодой бездельник О Джон-у собирался провести очередной день как обычно - за видеоиграми, но внезапно в Сеуле происходит прорыв зомбивирусной инфекции. Пока эпидемия набирает обороты, и соседи по небольшому жилому комплексу мечутся в панике, распространяя заразу, парень успевает забаррикадироваться у себя в квартире. Через некоторое время Джон-у замечает, что в доме напротив так же как и он прячется девушка.



Страна: Корея Южная
Студия: Zip Cinema, Perspective Pictures
Продолжительность: 01:38:32
Перевод: Любительский многоголосый RealFake

Файл
Кодек: H.264
Качество: WEBDLRip-720
Видео: 1280x536 (2.40:1), 2702 kbps, 23.976 fps
Звук: Русский (AC-3, 2ch, 256 kbps)
Субтитры: Русские(форс.,полные), английские



x264 [info]: frame I:1227 Avg QP:16.97 size: 90408
x264 [info]: frame P:31326 Avg QP:18.39 size: 30292
x264 [info]: frame B:109194 Avg QP:21.29 size: 8579
x264 [info]: consecutive B-frames: 2.6% 3.7% 8.7% 15.6% 14.2% 48.1% 2.8% 0.6% 0.4% 2.1% 1.1%

General
Unique ID : 146746054303956139955290689910917841022 (0x6E664313C5F64D967F1EE8B9B6F8407E)
Complete name : G:#Выжить.mkv
Format : Matroska
Format version : Version 4
File size : 2.04 GiB
Duration : 1 h 38 min
Overall bit rate : 2 960 kb/s
Movie name : #выжить / #saraitta / #alive (2020) - #LORDKILL#
Encoded date : UTC 2020-09-12 11:31:42
Writing application : mkvmerge v32.0.0 ('Astral Progressions') 64-bit
Writing library : libebml v1.3.7 + libmatroska v1.5.0

Video
ID : 1
Format : AVC
Format/Info : Advanced Video Codec
Format profile : [email protected]
Format settings : CABAC / 12 Ref Frames
Format settings, CABAC : Yes
Format settings, Reference : 12 frames
Codec ID : V_MPEG4/ISO/AVC
Duration : 1 h 38 min
Bit rate : 2 702 kb/s
Width : 1 280 pixels
Height : 536 pixels
Display aspect ratio : 2.40:1
Frame rate mode : Constant
Frame rate : 23.976 (24000/1001) FPS
Color space : YUV
Chroma subsampling : 4:2:0
Bit depth : 8 bits
Scan type : Progressive
Bits/(Pixel*Frame) : 0.164
Stream size : 1.86 GiB (91%)
Writing library : x264 core 159 r2991 1771b55
Encoding settings : cabac=1 / ref=12 / deblock=1:-2:-2 / analyse=0x3:0x113 / me=umh / subme=10 / psy=1 / psy_rd=1.00:0.20 / mixed_ref=1 / me_range=32 / chroma_me=1 / trellis=2 / 8x8dct=1 / cqm=0 / deadzone=21,11 / fast_pskip=0 / chroma_qp_offset=-3 / threads=12 / lookahead_threads=3 / sliced_threads=0 / nr=0 / decimate=1 / interlaced=0 / bluray_compat=0 / constrained_intra=0 / bframes=10 / b_pyramid=2 / b_adapt=2 / b_bias=0 / direct=1 / weightb=1 / open_gop=0 / weightp=2 / keyint=240 / keyint_min=23 / scenecut=40 / intra_refresh=0 / rc=crf / mbtree=0 / crf=19.5 / qcomp=0.60 / qpmin=0 / qpmax=69 / qpstep=4 / ip_ratio=1.40 / pb_ratio=1.30 / aq=1:1.00
Default : Yes
Forced : No

Audio
ID : 2
Format : AC-3
Format/Info : Audio Coding 3
Commercial name : Dolby Digital
Codec ID : A_AC3
Duration : 1 h 38 min
Bit rate mode : Constant
Bit rate : 256 kb/s
Channel(s) : 2 channels
Channel layout : L R
Sampling rate : 48.0 kHz
Frame rate : 31.250 FPS (1536 SPF)
Compression mode : Lossy
Stream size : 180 MiB (9%)
Title : MVO (RealFake)
Language : Russian
Service kind : Complete Main
Default : Yes
Forced : No

Text #1
ID : 3
Format : UTF-8
Codec ID : S_TEXT/UTF8
Codec ID/Info : UTF-8 Plain Text
Duration : 1 h 37 min
Bit rate : 2 b/s
Count of elements : 49
Stream size : 1.77 KiB (0%)
Title : Forced
Language : Russian
Default : Yes
Forced : No

Text #2
ID : 4
Format : UTF-8
Codec ID : S_TEXT/UTF8
Codec ID/Info : UTF-8 Plain Text
Duration : 1 h 37 min
Bit rate : 35 b/s
Count of elements : 664
Stream size : 25.4 KiB (0%)
Title : Full
Language : Russian
Default : No
Forced : No

Text #3
ID : 5
Format : UTF-8
Codec ID : S_TEXT/UTF8
Codec ID/Info : UTF-8 Plain Text
Duration : 1 h 36 min
Bit rate : 25 b/s
Count of elements : 615
Stream size : 17.7 KiB (0%)
Title : Full
Language : English
Default : No
Forced : No

Text #4
ID : 6
Format : UTF-8
Codec ID : S_TEXT/UTF8
Codec ID/Info : UTF-8 Plain Text
Duration : 1 h 34 min
Bit rate : 37 b/s
Count of elements : 1109
Stream size : 25.7 KiB (0%)
Title : SDH
Language : English
Default : No
Forced : No

Download
Для скачивания .torrent файлов необходима регистрация
Сайт не распространяет и не хранит электронные версии произведений, а лишь предоставляет доступ к создаваемому пользователями каталогу ссылок на торрент-файлы, которые содержат только списки хеш-сумм

Страница 1 из 1

Ответить на тему

   Похожие торренты   Торрент 




tracker_crontracker_cron