Регистрация ·  Логин: Пароль: Запомнить   · Забыли пароль?




Ответить на тему
Статистика раздачи
Размер: 1.75 ГБ | Зарегистрирован: 13 окт 2020, 17:05 | .torrent скачан: 0 раз(а), DHT: [ 46 ] раз(а)
Сидеров: [ 2  | 0 байт/сек ]   Личеров: [ 0  | 0 байт/сек ]   DHT: [ 2 / 0 ]
Автор Сообщение

Модератор

С нами: 2 года 4 месяца
Сообщения: 3361
Россия

Сообщение 13 окт 2020, 17:05 

[Цитировать]

Злодей / Villain

Информация о фильме:
Название: Злодей
Оригинальное название: Villain
Год выхода: 2020
Жанр: Боевик, триллер, драма, криминал
Режиссер: Фил Барантини
В ролях: Крэйг Фэйрбрасс, Николас Аарон, Роберт Гленистер, Идзука Хойл, Томи Мэй, Джейд Аша, Майкл Джон Трианор, Элуиз Ловелл Андерсон, Джордж Руссо, Таз Скайлар
Описание: Отсидев 10-летний срок в тюрьме, закоренелый преступник Эдди Фрэнкс выходит на свободу, намереваясь наладить отношения с дочерью и начать жизнь с чистого листа. Но о далеко идущих планах приходится забыть, когда становится известно, что его родной брат-наркоман Шон задолжал крупную сумму денег местным гангстерам, братьям Рою и Джонни Гарреттам, которые дали ему всего 3 недели на погашение долга. Не желая бросать близкого человека в беде, главный герой вынужден вновь взять в руки пистолет и решиться на еще одно рискованное ограбление...

Страна: Великобритания
Студия: Ascendant Films
Продолжительность: 01:37:11
Перевод: Любительский (многоголосый, закадровый) - Синема Ус

Информация о файле:
Кодек: AVC
Формат: MKV
Качество: WEB-DLRip-AVC
Видео: MPEG-4 AVC, 1024x428 (2.40:1), 1999 kbps, 23.976 fps, 0.190
Аудио RU: AC3, 2 ch, 48 kHz, 192 kbps
Аудио EN: AC3, 6 ch, 48 kHz, 384 kbps
Субтитры: Английские

Трейлер


General
Unique ID : 137826647816961115933793825908059732043 (0x67B0726291444F78B95C5C21D1BAF84B)
Complete name : D:uTorrentРипы_от_wolf1245_MediaBitЗлодей - Villain (2020) from wolf1245 & MediaBit.mkv
Format : Matroska
Format version : Version 4
File size : 1.75 GiB
Duration : 1 h 37 min
Overall bit rate : 2 575 kb/s
Movie name : Злодей / Villain (2020) from wolf1245 & MediaBit
Encoded date : UTC 2020-09-11 18:01:47
Writing application : mkvmerge v50.0.0 ('Awakenings') 64-bit
Writing library : libebml v1.4.0 + libmatroska v1.6.2
Video
ID : 1
Format : AVC
Format/Info : Advanced Video Codec
Format profile : [email protected]
Format settings : CABAC / 11 Ref Frames
Format settings, CABAC : Yes
Format settings, Reference frames : 11 frames
Codec ID : V_MPEG4/ISO/AVC
Duration : 1 h 37 min
Bit rate : 1 999 kb/s
Width : 1 024 pixels
Height : 428 pixels
Display aspect ratio : 2.40:1
Frame rate mode : Constant
Frame rate : 23.976 (24000/1001) FPS
Color space : YUV
Chroma subsampling : 4:2:0
Bit depth : 8 bits
Scan type : Progressive
Bits/(Pixel*Frame) : 0.190
Stream size : 1.36 GiB (78%)
Title : wolf1245 & MediaBit
Writing library : x264 core 157 r2958 57baac4
Encoding settings : cabac=1 / ref=11 / deblock=1:-3:-3 / analyse=0x3:0x133 / me=umh / subme=11 / psy=1 / psy_rd=1.00:0.15 / mixed_ref=1 / me_range=48 / chroma_me=1 / trellis=2 / 8x8dct=1 / cqm=0 / deadzone=21,11 / fast_pskip=0 / chroma_qp_offset=-3 / threads=10 / lookahead_threads=2 / sliced_threads=0 / nr=0 / decimate=0 / interlaced=0 / bluray_compat=0 / constrained_intra=0 / bframes=11 / b_pyramid=2 / b_adapt=2 / b_bias=0 / direct=3 / weightb=1 / open_gop=0 / weightp=2 / keyint=240 / keyint_min=24 / scenecut=40 / intra_refresh=0 / rc_lookahead=60 / rc=2pass / mbtree=0 / bitrate=1999 / ratetol=1.0 / qcomp=0.60 / qpmin=0 / qpmax=69 / qpstep=4 / cplxblur=20.0 / qblur=0.5 / vbv_maxrate=50000 / vbv_bufsize=62500 / nal_hrd=none / filler=0 / ip_ratio=1.40 / pb_ratio=1.30 / aq=1:1.00
Language : English
Default : Yes
Forced : No
Color range : Limited
Color primaries : BT.709
Transfer characteristics : BT.709
Matrix coefficients : BT.709
Audio #1
ID : 2
Format : AC-3
Format/Info : Audio Coding 3
Commercial name : Dolby Digital
Codec ID : A_AC3
Duration : 1 h 37 min
Bit rate mode : Constant
Bit rate : 192 kb/s
Channel(s) : 2 channels
Channel layout : L R
Sampling rate : 48.0 kHz
Frame rate : 31.250 FPS (1536 SPF)
Compression mode : Lossy
Stream size : 133 MiB (7%)
Title : MVO [Синема УС] MediaBit
Language : Russian
Service kind : Complete Main
Default : Yes
Forced : No
Audio #2
ID : 3
Format : AC-3
Format/Info : Audio Coding 3
Commercial name : Dolby Digital
Codec ID : A_AC3
Duration : 1 h 37 min
Bit rate mode : Constant
Bit rate : 384 kb/s
Channel(s) : 6 channels
Channel layout : L R C LFE Ls Rs
Sampling rate : 48.0 kHz
Frame rate : 31.250 FPS (1536 SPF)
Compression mode : Lossy
Stream size : 267 MiB (15%)
Title : Original
Language : English
Service kind : Complete Main
Default : No
Forced : No
Text
ID : 4
Format : UTF-8
Codec ID : S_TEXT/UTF8
Codec ID/Info : UTF-8 Plain Text
Duration : 1 h 36 min
Bit rate : 60 b/s
Count of elements : 1268
Stream size : 42.8 KiB (0%)
Language : English
Default : No
Forced : No

Релиз от: &

Download
Для скачивания .torrent файлов необходима регистрация
Сайт не распространяет и не хранит электронные версии произведений, а лишь предоставляет доступ к создаваемому пользователями каталогу ссылок на торрент-файлы, которые содержат только списки хеш-сумм

Страница 1 из 1

Ответить на тему

   Похожие торренты   Торрент 




tracker_crontracker_cron