Регистрация ·  Логин: Пароль: Запомнить   · Забыли пароль?




Ответить на тему
Статистика раздачи
Размер: 3.82 ГБ | Зарегистрирован: 13 окт 2020, 17:04 | .torrent скачан: 0 раз(а), DHT: [ 0 ] раз(а)
Сидеров: [ 0  | 0 байт/сек ]   Личеров: [ 0  | 0 байт/сек ]   DHT: [ 0 / 0 ]
Автор Сообщение

Модератор

С нами: 2 года 4 месяца
Сообщения: 3361
Россия

Сообщение 13 окт 2020, 17:04 

[Цитировать]


Информация о фильме
Название: Злодей
Оригинальное название: Villain
Год выхода: 2020
Жанр: Боевик, триллер, драма, криминал
Режиссер: Фил Барантини
В ролях: Крэйг Фэйрбрасс, Николас Аарон, Роберт Гленистер, Идзука Хойл, Томи Мэй, Джейд Аша, Майкл Джон Трианор, Элуиз Ловелл Андерсон, Джордж Руссо, Таз Скайлар

О фильме: Отсидев 10-летний срок в тюрьме, закоренелый преступник Эдди Фрэнкс выходит на свободу, намереваясь наладить отношения с дочерью и начать жизнь с чистого листа. Но о далеко идущих планах приходится забыть, когда становится известно, что его родной брат-наркоман Шон задолжал крупную сумму денег местным гангстерам, братьям Рою и Джонни Гарреттам, которые дали ему всего 3 недели на погашение долга. Не желая бросать близкого человека в беде, главный герой вынужден вновь взять в руки пистолет и решиться на еще одно рискованное ограбление...



Страна: Великобритания
Студия: Ascendant Films
Продолжительность: 01:37:11
Перевод: Любительский многоголосый | Синема Ус

Файл
Кодек: MPEG-4 AVC
Качество: WEB-DL 1080p
Видео: 5044 Кбит/с, 1920x1080, 23.976 кадр/с
Звук:
Аудио #1: AC3, 48 Гц, 192 Кбит/сек, 2 ch (L + R) | MVO | Синема Ус
Аудио #2: AC3, 48 Гц, 384 Кбит/сек, 6 ch (L C R, + L R, LFE) | Английский
Субтитры: Английские


Общее
Уникальный идентификатор : 291231078128934390306789265288338996458 (0xDB1910BEBD929C206C9C62CB3C45FCEA)
Полное имя : D:ТоррентыVillain.2020.1080p.WEB-DL.DD5.1.x264-CMZlodey.2020.x264.WEB-DL(1080p)-MediaBit.mkv
Формат : Matroska
Версия формата : Version 4
Размер файла : 3,82 Гбайт
Продолжительность : 1 ч. 37 м.
Общий поток : 5 619 Кбит/сек
Название фильма : Злодей / Villain (2020)
Дата кодирования : UTC 2020-09-11 08:55:15
Программа кодирования : mkvmerge v25.0.0 ('Prog Noir') 64-bit
Библиотека кодирования : libebml v1.3.6 + libmatroska v1.4.9

Видео
Идентификатор : 1
Формат : AVC
Формат/Информация : Advanced Video Codec
Профиль формата : [email protected]
Настройки формата : CABAC / 2 Ref Frames
Параметр CABAC формата : Да
Параметр RefFrames формата : 2 кадра
Идентификатор кодека : V_MPEG4/ISO/AVC
Продолжительность : 1 ч. 37 м.
Битрейт : 5 044 Кбит/сек
Ширина : 1 920 пикселей
Высота : 1 080 пикселей
Соотношение сторон : 16:9
Режим частоты кадров : Постоянный
Частота кадров : 23,976 (24000/1001) кадра/сек
Цветовое пространство : YUV
Субдискретизация насыщенности : 4:2:0
Битовая глубина : 8 бит
Тип развёртки : Прогрессивная
Бит/(Пиксели*Кадры) : 0.101
Размер потока : 3,42 Гбайт (90%)
Заголовок : CM
Библиотека кодирования : x264 core 155 r2901 7d0ff22
Язык : English
Default : Да
Forced : Нет
Цветовой диапазон : Limited
Основные цвета : BT.709
Характеристики трансфера : BT.709
Коэффициенты матрицы : BT.709

Аудио #1
Идентификатор : 2
Формат : AC-3
Формат/Информация : Audio Coding 3
Коммерческое название : Dolby Digital
Идентификатор кодека : A_AC3
Продолжительность : 1 ч. 37 м.
Вид битрейта : Постоянный
Битрейт : 192 Кбит/сек
Каналы : 2 канала
Channel layout : L R
Частота : 48,0 КГц
Частота кадров : 31,250 кадров/сек (1536 SPF)
Метод сжатия : С потерями
Размер потока : 133 Мбайт (3%)
Заголовок : MVO [Синема УС] MediaBit
Язык : Russian
Service kind : Complete Main
Default : Да
Forced : Нет

Аудио #2
Идентификатор : 3
Формат : AC-3
Формат/Информация : Audio Coding 3
Коммерческое название : Dolby Digital
Идентификатор кодека : A_AC3
Продолжительность : 1 ч. 37 м.
Вид битрейта : Постоянный
Битрейт : 384 Кбит/сек
Каналы : 6 каналов
Channel layout : L R C LFE Ls Rs
Частота : 48,0 КГц
Частота кадров : 31,250 кадров/сек (1536 SPF)
Метод сжатия : С потерями
Размер потока : 267 Мбайт (7%)
Язык : English
Service kind : Complete Main
Default : Нет
Forced : Нет

Текст
Идентификатор : 4
Формат : UTF-8
Идентификатор кодека : S_TEXT/UTF8
Идентификатор кодека/Информация : UTF-8 Plain Text
Продолжительность : 1 ч. 36 м.
Битрейт : 60 бит/сек
Count of elements : 1268
Размер потока : 42,8 Кбайт (0%)
Язык : English
Default : Нет
Forced : Нет


Релиз от:

Download
Для скачивания .torrent файлов необходима регистрация
Сайт не распространяет и не хранит электронные версии произведений, а лишь предоставляет доступ к создаваемому пользователями каталогу ссылок на торрент-файлы, которые содержат только списки хеш-сумм

Страница 1 из 1

Ответить на тему

   Похожие торренты   Торрент 




tracker_crontracker_cron