Регистрация ·  Логин: Пароль: Запомнить   · Забыли пароль?




Ответить на тему
Статистика раздачи
Размер: 1.46 ГБ | Зарегистрирован: 13 окт 2020, 17:04 | .torrent скачан: 0 раз(а), DHT: [ 69 ] раз(а)
Сидеров: [ 4  | 0 байт/сек ]   Личеров: [ 0  | 0 байт/сек ]   DHT: [ 4 / 0 ]
Автор Сообщение

Модератор

С нами: 2 года 4 месяца
Сообщения: 3361
Россия

Сообщение 13 окт 2020, 17:04 

[Цитировать]


«Здесь каждый сам за себя»
Информация о фильме
Название: Запретная зона
Год выхода: 2020
Жанр: Триллер

Режиссер: Митрий Семенов-Алейников
В ролях: Дарья Мельникова, Александр Головин, Даниил Вахрушев, Сергей Сосновский, Павел Чинарёв, Ирина Безряднова, Сергей Толкач, Юлианна Михневич, Игорь Сидорчик, Никита Провалинский

О фильме:
1989 год, 50 км от Чернобыля. Компания друзей отправляется в поход. Во время сплава по реке молодые люди сбиваются с маршрута и попадают в зону отчуждения. Волею случая на совести ребят оказывается чужая смерть и чужие деньги. Теперь события развиваются непредсказуемо. Как поведёт себя каждый участник похода? Взаимное недоверие, страх, ревность и сумка с деньгами, которые могут всё исправить… или погубить.


Страна: Беларусь
Студия: Министерство культуры республики Беларусь, MediaCube Pro, Film Wagen, Megogo Studios
Продолжительность: 01:35:55
Перевод: Не требуется
Файл
Качество: WEB-DLRip-AVC
Формат: MKV
Кодек: MPEG-4 AVC
Видео: 1024x428 (2,35:1), 24 fps, MPEG-4 AVC, 1791 Кbps avg, 0.170 bit/pixel
Аудио: AC3, 48 kHz, 6 ch, ~384.00 kbps avg | русский |
Субтитры: Отсутствуют

*** Реклама, любого вида, отсутствует.

Общее
Уникальный идентификатор : 71987181825538693526902716385949781272 (0x36283A16B50F470BFED928D4060E0D18)
Полное имя : Zapretnaya.zona.2020.WEB-DLRip.1.46Gb.x264.mkv
Формат : Matroska
Версия формата : Version 4
Размер файла : 1,46 Гбайт
Продолжительность : 1 ч. 35 м.
Общий поток : 2 174 Кбит/сек
Название фильма : Запретная зона (2020)
Дата кодирования : UTC 2020-09-11 09:08:22
Программа кодирования : mkvmerge v47.0.0 ('Black Flag') 64-bit
Библиотека кодирования : libebml v1.3.10 + libmatroska v1.5.2
Обложка : Yes
Attachments : cover.jpg

Видео
Идентификатор : 1
Формат : AVC
Формат/Информация : Advanced Video Codec
Профиль формата : [email protected]
Настройки формата : CABAC / 9 Ref Frames
Параметр CABAC формата : Да
Параметр RefFrames формата : 9 кадров
Идентификатор кодека : V_MPEG4/ISO/AVC
Продолжительность : 1 ч. 35 м.
Битрейт : 1 791 Кбит/сек
Ширина : 1 024 пикселя
Высота : 428 пикселей
Соотношение сторон : 2,40:1
Режим частоты кадров : Постоянный
Частота кадров : 24,000 кадра/сек
Цветовое пространство : YUV
Субдискретизация насыщенности : 4:2:0
Битовая глубина : 8 бит
Тип развёртки : Прогрессивная
Бит/(Пиксели*Кадры) : 0.170
Размер потока : 1,20 Гбайт (82%)
Заголовок : #stillet
Библиотека кодирования : x264 core 152 r2851bm ba24899
Настройки программы : cabac=1 / ref=9 / deblock=1:-2:-2 / analyse=0x3:0x113 / me=umh / subme=11 / psy=1 / psy_rd=1.00:0.15 / mixed_ref=1 / me_range=32 / chroma_me=1 / trellis=2 / 8x8dct=1 / cqm=0 / deadzone=21,11 / fast_pskip=0 / chroma_qp_offset=-3 / threads=8 / lookahead_threads=3 / sliced_threads=0 / nr=0 / decimate=0 / interlaced=0 / bluray_compat=0 / constrained_intra=0 / bframes=10 / b_pyramid=2 / b_adapt=2 / b_bias=0 / direct=3 / weightb=1 / open_gop=0 / weightp=2 / keyint=240 / keyint_min=23 / scenecut=40 / intra_refresh=0 / rc=2pass / mbtree=0 / bitrate=1791 / ratetol=1.0 / qcomp=0.60 / qpmin=0 / qpmax=69 / qpstep=4 / cplxblur=20.0 / qblur=0.5 / ip_ratio=1.40 / pb_ratio=1.30 / aq=1:1.00
Язык : English
Default : Да
Forced : Нет

Аудио
Идентификатор : 2
Формат : AC-3
Формат/Информация : Audio Coding 3
Коммерческое название : Dolby Digital
Идентификатор кодека : A_AC3
Продолжительность : 1 ч. 35 м.
Вид битрейта : Постоянный
Битрейт : 384 Кбит/сек
Каналы : 6 каналов
Channel layout : L R C LFE Ls Rs
Частота : 48,0 КГц
Частота кадров : 31,250 кадров/сек (1536 SPF)
Метод сжатия : С потерями
Размер потока : 263 Мбайт (18%)
Язык : Russian
Service kind : Complete Main
Default : Да
Forced : Нет


Download
Для скачивания .torrent файлов необходима регистрация
Сайт не распространяет и не хранит электронные версии произведений, а лишь предоставляет доступ к создаваемому пользователями каталогу ссылок на торрент-файлы, которые содержат только списки хеш-сумм

Страница 1 из 1

Ответить на тему

   Похожие торренты   Торрент 




tracker_crontracker_cron