Регистрация ·  Логин: Пароль: Запомнить   · Забыли пароль?




Ответить на тему
Статистика раздачи
Размер: 5.8 ГБ | Зарегистрирован: 13 окт 2020, 17:04 | .torrent скачан: 0 раз(а), DHT: [ 0 ] раз(а)
Сидеров: [ 0  | 0 байт/сек ]   Личеров: [ 0  | 0 байт/сек ]   DHT: [ 0 / 0 ]
Автор Сообщение

Модератор

С нами: 2 года 4 месяца
Сообщения: 3361
Россия

Сообщение 13 окт 2020, 17:04 

[Цитировать]


Информация о фильме
Название: Папина дочка / Забытый принц
Оригинальное название: Le Prince oublié
Год выхода: 2020
Жанр: фэнтези, комедия, семейный, приключения
Режиссер: Мишель Хазанавичус
В ролях: Омар Си, Кейла Фала, Сара Гэй, Беренис Бежо, Франсуа Дамиенс, Неотис Ронзон, Филипп Вие, Филипп Юшан, Лионель Лаже, Филипп Эриссон

О фильме:
Отец-одиночка обожает свою дочку: развлекает ее играми в слова и поговорки, рассказывает сказочные истории — здесь он придумал целый мир, в который они с дочкой отправляются перед сном. В нем он сказочный принц, спасающий свою маленькую принцессу от всех козней мира. Но дети имеют одну отвратительную особенность: они растут, что хуже того — взрослеют. И с взрослением меняются приоритеты. И вот уже место принца-папы занимает одногрупник по коллежу, а на дежурно-ласковое «я принес тебе миндальных печеееенек» папа слышит язвительное, в тон, «не говори со мной как с глууупой!» И тогда в волшебном мире наступает кризис, а принцу надо понять, как спасти свое королевство. Здесь ему поможет новый персонаж…


Страна: Франция
Студия: Pathé, Prélude, StudioCanal
Продолжительность: 01:42:18
Перевод: Субтитры (Веселый Гном)

Файл
Кодек: H.264
Качество: BDRip 720p
Видео: 1280x536 7200 kbps 23,976fps
Звук: DTS 1026 kbps 6ch - français
Субтитры: русские, вшитые; французские

Релиз от: Веселый Гном

Unique ID : 146653191133045256090887703948334698635 (0x6E546091C5B09F25393FD9E2B85B908B)
Complete name : F:BUFERSБуферBousculer en µLe Prince Oublié. 2020. 720p Nouveau8 Le Prince Oublié° [перевод и субтитры - Веселый Гном].mkv
Format : Matroska
Format version : Version 4
File size : 5.80 GiB
Duration : 1 h 42 min
Overall bit rate : 8 111 kb/s
Movie name : Le Prince oublié, 2020
Encoded date : UTC 2020-09-08 15:34:17
Writing application : mkvmerge v29.0.0 ('Like It Or Not') 64-bit
Writing library : libebml v1.3.6 + libmatroska v1.4.9 / Lavf58.29.100
Copyright : Œuvre de Gnome Jovial

Video
ID : 2
Format : AVC
Format/Info : Advanced Video Codec
Format profile : [email protected]
Format settings : CABAC / 12 Ref Frames
Format settings, CABAC : Yes
Format settings, ReFrames : 12 frames
Codec ID : V_MPEG4/ISO/AVC
Duration : 1 h 42 min
Bit rate : 7 100 kb/s
Width : 1 280 pixels
Height : 536 pixels
Display aspect ratio : 2.40:1
Frame rate mode : Constant
Frame rate : 23.976 (24000/1001) FPS
Color space : YUV
Chroma subsampling : 4:2:0
Bit depth : 8 bits
Scan type : Progressive
Bits/(Pixel*Frame) : 0.432
Stream size : 5.06 GiB (87%)
Writing library : x264 core 157 r2935 545de2f
Encoding settings : cabac=1 / ref=12 / deblock=1:-3:-3 / analyse=0x3:0x133 / me=umh / subme=9 / psy=1 / psy_rd=1.00:0.00 / mixed_ref=1 / me_range=32 / chroma_me=1 / trellis=2 / 8x8dct=1 / cqm=0 / deadzone=21,11 / fast_pskip=0 / chroma_qp_offset=-2 / threads=17 / lookahead_threads=2 / sliced_threads=0 / nr=0 / decimate=1 / interlaced=0 / bluray_compat=0 / constrained_intra=0 / bframes=8 / b_pyramid=2 / b_adapt=2 / b_bias=0 / direct=3 / weightb=1 / open_gop=0 / weightp=2 / keyint=240 / keyint_min=24 / scenecut=40 / intra_refresh=0 / rc_lookahead=60 / rc=2pass / mbtree=1 / bitrate=7100 / ratetol=1.0 / qcomp=0.60 / qpmin=0 / qpmax=69 / qpstep=4 / cplxblur=20.0 / qblur=0.5 / vbv_maxrate=62500 / vbv_bufsize=78125 / nal_hrd=none / filler=0 / ip_ratio=1.40 / aq=1:1.00
Language : French
Default : Yes
Forced : No
Color range : Limited
Color primaries : BT.709
Transfer characteristics : BT.709
Matrix coefficients : BT.709

Audio
ID : 1
Format : DTS
Format/Info : Digital Theater Systems
Codec ID : A_DTS
Duration : 1 h 42 min
Bit rate mode : Constant
Bit rate : 1 026 kb/s
Channel(s) : 6 channels
Channel layout : C L R Ls Rs LFE
Sampling rate : 48.0 kHz
Frame rate : 93.750 FPS (512 SPF)
Bit depth : 16 bits
Compression mode : Lossy
Delay relative to video : -21 ms
Stream size : 751 MiB (13%)
Writing library : Lavc58.97.102 dca
Language : French
Default : Yes
Forced : No

Text
ID : 3
Format : UTF-8
Codec ID : S_TEXT/UTF8
Codec ID/Info : UTF-8 Plain Text
Duration : 1 h 42 min
Bit rate : 62 b/s
Count of elements : 1586
Stream size : 46.5 KiB (0%)
Language : French
Default : Yes
Forced : No




Download
Для скачивания .torrent файлов необходима регистрация
Сайт не распространяет и не хранит электронные версии произведений, а лишь предоставляет доступ к создаваемому пользователями каталогу ссылок на торрент-файлы, которые содержат только списки хеш-сумм

Страница 1 из 1

Ответить на тему

   Похожие торренты   Торрент 




tracker_crontracker_cron