Регистрация ·  Логин: Пароль: Запомнить   · Забыли пароль?




Ответить на тему
Статистика раздачи
Размер: 3.08 ГБ | Зарегистрирован: 13 окт 2020, 17:03 | .torrent скачан: 0 раз(а), DHT: [ 16 ] раз(а)
Сидеров: [ 12  | 0 байт/сек ]   Личеров: [ 1  | 0 байт/сек ]   DHT: [ 12 / 1 ]
Автор Сообщение

Модератор

С нами: 2 года 4 месяца
Сообщения: 3361
Россия

Сообщение 13 окт 2020, 17:03 

[Цитировать]


Информация о фильме
Название: Параллельные Разумы
Оригинальное название: Parallel Minds
Год выхода: 2020
Жанр: Триллер, фантастика
Режиссер: Бенжамин Хейден
В ролях: Грег Брайк, Томми-Эмбер Пири, Мэдисон Уолш, Уильма Пелли, Мишель Траш, Челси Грин, Стефан Леголт, Оливия Дьюк, Сэм Дьюк, Нил Напье

О фильме: В недалёком будущем технологическая фирма Красный Глаз находится на пороге разработки революционной контактной линзы, которая позволяет записывать человеческое зрение и воссоздавать воспоминания. После убийства главного исследователя компании, детектив Томас Эллиот и ученый Марго Элсон вынуждены справиться с неуловимым цифровым созданием.



Страна: Канада
Студия: Chaos, a Film Company, Voice Pictures
Продолжительность: 01:26:44
Перевод: Любительский многоголосый | @[email protected]

Файл
Кодек: MPEG-4 AVC
Качество: WEB-DL 1080p
Видео: 4516 Кбит/с, 1920x810, 23.976 кадр/с
Звук:
Аудио #1: AC3, 48 Гц, 192 Кбит/сек, 2 ch (L + R) | MVO | @[email protected]
Аудио #2: AC3, 48 Гц, 384 Кбит/сек, 6 ch (L C R, + L R, LFE) | Английский
Субтитры: Английские


Общее
Уникальный идентификатор : 33947024990167730507076121349903268134 (0x1989F58DD017E1B0B562FB91731AB926)
Полное имя : D:ТоррентыParallel.Minds.2020.1080p.WEB-DL.DD5.1.H264-FGTParallelnye.razumi.2020.x264.WEB-DL(1080p)-MediaBit.mkv
Формат : Matroska
Версия формата : Version 4
Размер файла : 3,08 Гбайт
Продолжительность : 1 ч. 26 м.
Общий поток : 5 091 Кбит/сек
Название фильма : Параллельные Разумы / Parallel Minds (2020)
Дата кодирования : UTC 2020-09-10 17:16:57
Программа кодирования : mkvmerge v25.0.0 ('Prog Noir') 64-bit
Библиотека кодирования : libebml v1.3.6 + libmatroska v1.4.9

Видео
Идентификатор : 1
Формат : AVC
Формат/Информация : Advanced Video Codec
Профиль формата : [email protected]
Настройки формата : CABAC / 5 Ref Frames
Параметр CABAC формата : Да
Параметр RefFrames формата : 5 кадров
Идентификатор кодека : V_MPEG4/ISO/AVC
Продолжительность : 1 ч. 26 м.
Битрейт : 4 516 Кбит/сек
Ширина : 1 920 пикселей
Высота : 810 пикселей
Соотношение сторон : 2,40:1
Режим частоты кадров : Постоянный
Частота кадров : 23,976 (24000/1001) кадра/сек
Цветовое пространство : YUV
Субдискретизация насыщенности : 4:2:0
Битовая глубина : 8 бит
Тип развёртки : Прогрессивная
Бит/(Пиксели*Кадры) : 0.121
Размер потока : 2,73 Гбайт (89%)
Заголовок : FGT
Язык : English
Default : Да
Forced : Нет
Цветовой диапазон : Limited
Основные цвета : BT.709
Характеристики трансфера : BT.709
Коэффициенты матрицы : BT.709

Аудио #1
Идентификатор : 2
Формат : AC-3
Формат/Информация : Audio Coding 3
Коммерческое название : Dolby Digital
Идентификатор кодека : A_AC3
Продолжительность : 1 ч. 26 м.
Вид битрейта : Постоянный
Битрейт : 192 Кбит/сек
Каналы : 2 канала
Channel layout : L R
Частота : 48,0 КГц
Частота кадров : 31,250 кадров/сек (1536 SPF)
Метод сжатия : С потерями
Размер потока : 119 Мбайт (4%)
Заголовок : MVO [@[email protected]] MediaBit
Язык : Russian
Service kind : Complete Main
Default : Да
Forced : Нет

Аудио #2
Идентификатор : 3
Формат : AC-3
Формат/Информация : Audio Coding 3
Коммерческое название : Dolby Digital
Идентификатор кодека : A_AC3
Продолжительность : 1 ч. 26 м.
Вид битрейта : Постоянный
Битрейт : 384 Кбит/сек
Каналы : 6 каналов
Channel layout : L R C LFE Ls Rs
Частота : 48,0 КГц
Частота кадров : 31,250 кадров/сек (1536 SPF)
Метод сжатия : С потерями
Размер потока : 238 Мбайт (8%)
Язык : English
Service kind : Complete Main
Default : Нет
Forced : Нет

Текст
Идентификатор : 4
Формат : UTF-8
Идентификатор кодека : S_TEXT/UTF8
Идентификатор кодека/Информация : UTF-8 Plain Text
Продолжительность : 1 ч. 23 м.
Битрейт : 40 бит/сек
Count of elements : 932
Размер потока : 24,7 Кбайт (0%)
Язык : English
Default : Нет
Forced : Нет

Меню
00:00:00.000 : en:Chapter 01
00:09:03.000 : en:Chapter 02
00:20:15.000 : en:Chapter 03
00:32:56.000 : en:Chapter 04
00:41:30.000 : en:Chapter 05
00:51:12.000 : en:Chapter 06
01:03:13.000 : en:Chapter 07
01:13:42.000 : en:Chapter 08
01:24:26.000 : en:Chapter 09


Релиз от:

Download
Для скачивания .torrent файлов необходима регистрация
Сайт не распространяет и не хранит электронные версии произведений, а лишь предоставляет доступ к создаваемому пользователями каталогу ссылок на торрент-файлы, которые содержат только списки хеш-сумм

Страница 1 из 1

Ответить на тему

   Похожие торренты   Торрент 




tracker_crontracker_cron