Регистрация ·  Логин: Пароль: Запомнить   · Забыли пароль?




Ответить на тему
Статистика раздачи
Размер: 2.29 ГБ | Зарегистрирован: 13 окт 2020, 17:03 | .torrent скачан: 0 раз(а), DHT: [ 1756 ] раз(а)
Сидеров: [ 11  | 0 байт/сек ]   Личеров: [ 0  | 0 байт/сек ]   DHT: [ 11 / 0 ]
Автор Сообщение

Модератор

С нами: 2 года 4 месяца
Сообщения: 3361
Россия

Сообщение 13 окт 2020, 17:03 

[Цитировать]

Информация о фильме
Название: Думаю, как всё закончить
Оригинальное название: I'm Thinking of Ending Things
Год выхода: 2020
Жанр: Триллер, драма
Режиссер: Чарли Кауфман

В ролях: Джесси Племонс, Джесси Бакли, Тони Коллетт, Дэвид Тьюлис, Джейсон Ральф, Колби Минифи, Эбби Куинн, Гай Бойд, Хэдли Робинсон, Тедди Колука, Эшлин Алесси, Энтони Грассо, DJ Нино Карта, Ира Темчин, Остин Феррис, Данниэль Роуз, Варвара Карденас

О фильме:
Джейк отправляется на отдалённую ферму, чтобы познакомить свою девушку с родителями. Ирония в том, что та хотела порвать с Джейком и теперь находится в затруднительном положении. По прибытии выясняется, что в доме родителей Джейка творится что-то странное, и сами потенциальные родственники ведут себя очень подозрительно.



Страна: США
Студия: Likely Story, Projective Testing Service
Продолжительность: 02:14:46
Перевод: Профессиональный многоголосый | HDRezka Studio
Субтитры: Русские (Forced, Full), английские

Файл
Формат: MKV
Качество: WEB-DLRip-AVC
Видео: 768x576 at 24.000 fps, [email protected], ~1984 kbps, 0.187 bpp
Аудио: АС3, 6 ch, 448 Кбит/с, 48.0 KHz
Формат субтитров: softsub (SRT)
► Без Рекламы!

***Релиз от: -=DoMiNo=-

x264 [info]: frame I:1402 Avg QP:15.55 size: 50688
x264 [info]: frame P:30821 Avg QP:16.50 size: 21884
x264 [info]: frame B:161849 Avg QP:18.85 size: 7784

General
Format : Matroska
Format version : Version 4
File size : 2.29 GiB
Duration : 2 h 14 min
Overall bit rate : 2 434 kb/s
Movie name : Думаю, как всё закончить.(2020).N.F.WEB-DLRip-AVC.[-=DoMiNo=-] / I'm Thinking of Ending Things
Encoded date : UTC 2020-09-10 15:27:48
Writing application : mkvmerge v50.0.0 ('Awakenings') 64-bit
Writing library : libebml v1.4.0 + libmatroska v1.6.2
Cover : Yes
Attachments : Cover.jpg / Cover 2.jpg

Video
ID : 1
Format : AVC
Format/Info : Advanced Video Codec
Format profile : [email protected]
Format settings : CABAC / 12 Ref Frames
Format settings, CABAC : Yes
Format settings, Reference : 12 frames
Codec ID : V_MPEG4/ISO/AVC
Duration : 2 h 14 min
Bit rate : 1 984 kb/s
Width : 768 pixels
Height : 576 pixels
Display aspect ratio : 4:3
Frame rate mode : Constant
Frame rate : 24.000 FPS
Color space : YUV
Chroma subsampling : 4:2:0
Bit depth : 8 bits
Scan type : Progressive
Bits/(Pixel*Frame) : 0.187
Stream size : 1.87 GiB (82%)
Title : -=DoMiNo=-
Writing library : x264 core 159 r2991 1771b55
Encoding settings : cabac=1 / ref=12 / deblock=1:-3:-3 / analyse=0x3:0x133 / me=umh / subme=10 / psy=1 / psy_rd=1.00:0.15 / mixed_ref=1 / me_range=32 / chroma_me=1 / trellis=2 / 8x8dct=1 / cqm=0 / deadzone=21,11 / fast_pskip=0 / chroma_qp_offset=-3 / threads=6 / lookahead_threads=1 / sliced_threads=0 / nr=0 / decimate=1 / interlaced=0 / bluray_compat=0 / constrained_intra=0 / bframes=12 / b_pyramid=2 / b_adapt=2 / b_bias=0 / direct=1 / weightb=1 / open_gop=0 / weightp=2 / keyint=250 / keyint_min=24 / scenecut=40 / intra_refresh=0 / rc_lookahead=60 / rc=crf / mbtree=0 / crf=19.0 / qcomp=0.60 / qpmin=0 / qpmax=69 / qpstep=4 / vbv_maxrate=50000 / vbv_bufsize=62500 / crf_max=0.0 / nal_hrd=none / filler=0 / ip_ratio=1.40 / pb_ratio=1.30 / aq=1:1.00
Language : English
Default : Yes
Forced : No
Color range : Limited
Color primaries : BT.709
Transfer characteristics : BT.709
Matrix coefficients : BT.709

Audio
ID : 2
Format : AC-3
Format/Info : Audio Coding 3
Commercial name : Dolby Digital
Codec ID : A_AC3
Duration : 2 h 14 min
Bit rate mode : Constant
Bit rate : 448 kb/s
Channel(s) : 6 channels
Channel layout : L R C LFE Ls Rs
Sampling rate : 48.0 kHz
Frame rate : 31.250 FPS (1536 SPF)
Compression mode : Lossy
Stream size : 432 MiB (18%)
Title : MVO_[HDRezka Studio]
Language : Russian
Service kind : Complete Main
Default : Yes
Forced : No

Text #1
ID : 3
Format : UTF-8
Codec ID : S_TEXT/UTF8
Codec ID/Info : UTF-8 Plain Text
Duration : 2 h 8 min
Bit rate : 2 b/s
Count of elements : 48
Stream size : 1.95 KiB (0%)
Title : Forced
Language : Russian
Default : Yes
Forced : No

Text #2
ID : 4
Format : UTF-8
Codec ID : S_TEXT/UTF8
Codec ID/Info : UTF-8 Plain Text
Duration : 2 h 13 min
Bit rate : 99 b/s
Count of elements : 1878
Stream size : 96.8 KiB (0%)
Title : Russian
Language : Russian
Default : No
Forced : No

Text #3
ID : 5
Format : UTF-8
Codec ID : S_TEXT/UTF8
Codec ID/Info : UTF-8 Plain Text
Duration : 2 h 13 min
Bit rate : 97 b/s
Count of elements : 2404
Stream size : 95.4 KiB (0%)
Title : English
Language : English
Default : No
Forced : No

Menu
00:00:00.000 : :Глава 01
00:07:30.000 : :Глава 02
00:15:00.000 : :Глава 03
00:22:30.000 : :Глава 04
00:30:00.000 : :Глава 05
00:37:30.000 : :Глава 06
00:45:00.000 : :Глава 07
00:52:30.000 : :Глава 08
01:00:00.000 : :Глава 09
01:07:30.000 : :Глава 10
01:15:00.000 : :Глава 11
01:22:30.000 : :Глава 12
01:30:00.000 : :Глава 13
01:37:30.000 : :Глава 14
01:45:00.000 : :Глава 15
01:52:30.000 : :Глава 16
02:00:00.000 : :Глава 17
02:07:30.000 : :Глава 18

Download
Для скачивания .torrent файлов необходима регистрация
Сайт не распространяет и не хранит электронные версии произведений, а лишь предоставляет доступ к создаваемому пользователями каталогу ссылок на торрент-файлы, которые содержат только списки хеш-сумм

Страница 1 из 1

Ответить на тему

   Похожие торренты   Торрент 




tracker_crontracker_cron