Регистрация ·  Логин: Пароль: Запомнить   · Забыли пароль?




Ответить на тему
Статистика раздачи
Размер: 3.26 ГБ | Зарегистрирован: 13 окт 2020, 17:03 | .torrent скачан: 0 раз(а), DHT: [ 0 ] раз(а)
Сидеров: [ 0  | 0 байт/сек ]   Личеров: [ 0  | 0 байт/сек ]   DHT: [ 0 / 0 ]
Автор Сообщение

Модератор

С нами: 2 года 5 месяцев
Сообщения: 3401
Россия

Сообщение 13 окт 2020, 17:03 

[Цитировать]


Информация о фильме
Название: Вечность между нами
Оригинальное название: Endless
Год выхода: 2020
Жанр: Фэнтези, драма, мелодрама
Режиссер: Скотт Спир
В ролях: Александра Шипп, Николас Хэмилтон, Фамке Янссен, Иэн Трейси, Патрик Гилмор, Кэтрин Лок Хэггквист, Аарон Перл, Дерон Хортон, Зои Белкин, Эдди Рамос



О фильме: Влюбленных подростков Райли и Криса разлучает автомобильная авария. Но благодаря необыкновенному дару Райли, у нее есть шанс хотя бы на короткое время вернуть любимого. Отпустить того, кто тебе дорог, или быть вместе, несмотря на смертельную опасность, — непростой выбор для настоящей любви.

Страна: США
Студия: Summerstorm Entertainment, Thunder Road Pictures, Film House Germany
Продолжительность: 01:34:06
Перевод: Дублированный | iTunes

Качество: WEB-DL 1080p
Видео: MPEG-4 AVC, 1920x804, 4567 Кbit/s, 24.000 fps
Аудио: 48 kHz, AC3, 5.1, 384 Kbps | iTunes | RUS |
Субтитры: Нет



General
Unique ID : 339336295663371279808035542947796615735 (0xFF49CB15F10EC388B9E3B22A48B00237)
Complete name : D:Video111Endless.2020.WEB-DL.1080p.seleZen.mkv
Format : Matroska
Format version : Version 4
File size : 3.26 GiB
Duration : 1 h 34 min
Overall bit rate : 4 953 kb/s
Movie name : Endless 2020 from селезень
Encoded date : UTC 2020-09-10 15:19:05
Writing application : mkvmerge v40.0.0 ('Old Town Road + Pony') 64-bit
Writing library : libebml v1.3.9 + libmatroska v1.5.2

Video
ID : 1
Format : AVC
Format/Info : Advanced Video Codec
Format profile : [email protected]
Format settings : CABAC / 5 Ref Frames
Format settings, CABAC : Yes
Format settings, Reference : 5 frames
Codec ID : V_MPEG4/ISO/AVC
Duration : 1 h 34 min
Bit rate : 4 567 kb/s
Width : 1 920 pixels
Height : 804 pixels
Display aspect ratio : 2.40:1
Frame rate mode : Constant
Frame rate : 24.000 FPS
Color space : YUV
Chroma subsampling : 4:2:0
Bit depth : 8 bits
Scan type : Progressive
Bits/(Pixel*Frame) : 0.123
Stream size : 3.00 GiB (92%)
Language : English
Default : Yes
Forced : No
Color range : Limited
Color primaries : BT.709
Transfer characteristics : BT.709
Matrix coefficients : BT.709

Audio
ID : 2
Format : AC-3
Format/Info : Audio Coding 3
Commercial name : Dolby Digital
Codec ID : A_AC3
Duration : 1 h 34 min
Bit rate mode : Constant
Bit rate : 384 kb/s
Channel(s) : 6 channels
Channel layout : L R C LFE Ls Rs
Sampling rate : 48.0 kHz
Frame rate : 31.250 FPS (1536 SPF)
Compression mode : Lossy
Stream size : 258 MiB (8%)
Title : iTunes
Language : Russian
Service kind : Complete Main
Default : Yes
Forced : Yes

Menu
00:00:00.000 : en:Глава 1
00:03:00.666 : en:Глава 2
00:10:04.332 : en:Глава 3
00:16:58.832 : en:Глава 4
00:22:06.623 : en:Глава 5
00:30:23.831 : en:Глава 6
00:40:44.664 : en:Глава 7
00:50:53.205 : en:Глава 8
00:57:34.580 : en:Глава 9
01:03:04.246 : en:Глава 10
01:10:38.954 : en:Глава 11
01:14:50.454 : en:Глава 12
01:21:00.204 : en:Глава 13


Релиз: Присоединяйся к:



Download
Для скачивания .torrent файлов необходима регистрация
Сайт не распространяет и не хранит электронные версии произведений, а лишь предоставляет доступ к создаваемому пользователями каталогу ссылок на торрент-файлы, которые содержат только списки хеш-сумм

Страница 1 из 1

Ответить на тему

   Похожие торренты   Торрент