Регистрация ·  Логин: Пароль: Запомнить   · Забыли пароль?




Ответить на тему
Статистика раздачи
Размер: 1.46 ГБ | Зарегистрирован: 13 окт 2020, 17:03 | .torrent скачан: 0 раз(а), DHT: [ 0 ] раз(а)
Сидеров: [ 0  | 0 байт/сек ]   Личеров: [ 0  | 0 байт/сек ]   DHT: [ 0 / 0 ]
Автор Сообщение

Модератор

С нами: 2 года 4 месяца
Сообщения: 3361
Россия

Сообщение 13 окт 2020, 17:03 

[Цитировать]


Информация о фильме
Название: Ночная жизнь
Оригинальное название: Nightlife
Год выхода: 2020
Жанр: Мелодрама, комедия

Режиссер: Симон Ферхоэвен
В ролях: Элиас ЭмБарек, Джулиан Лооман, Фредерик Лау, Каро Культ, Николас Офчарек, Кристина ду Рего, Симон Ферхоэвен, Полина Рожински, Милена Драйсиг, Стефан Хорнунг

О фильме:
Когда двум друзьям-барменам отказывают в кредите на открытие собственного ночного клуба, они пытаются найти другие способы достать деньги. После одной такой неудачной попытки местная мафия ставит им условие: вернуть кругленькую сумму к полудню следующего дня — или они покойники. По стечению обстоятельств именно на этот вечер у одного из друзей назначено свидание с девушкой его мечты, которое он никак не может отменить. Теперь два друга должны придумать, как не оставить девушку без внимания, при этом остаться в живых к полудню следующего дня.



Страна: Германия
Студия: SevenPictures Film, Warner Bros. Film Productions Germany, Wiedemann & Berg Filmproduktion
Продолжительность: 01:55:21
Перевод:
• Профессиональный (многоголосый, закадровый) | iTunes
Файл
Качество: BDRip-AVC
Исходник: Nightlife.2020.BDREMUX.1080p.seleZen.mkv
Формат: MKV
Кодек: MPEG-4 AVC
Видео: 864x360 (2,40:1), 23.976 fps, MPEG-4 AVC ~ 1616 Kbps avg, 0.217 bit/pixel
Аудио: AC3, 48 kHz, 2 ch, ~192.00 kbps avg | русский | iTunes
Субтитры: Немецкие (SDH)
Общее
Уникальный идентификатор : 125574656638572216046132732633453097400 (0x5E78CC94F08649F2A72CF11A520AF1B8)
Полное имя : Nightlife.2020.BDRip.1.46Gb.x264.mkv
Формат : Matroska
Версия формата : Version 4
Размер файла : 1,46 Гбайт
Продолжительность : 1 ч. 55 м.
Общий поток : 1 807 Кбит/сек
Название фильма : Ночная жизнь / Nightlife (2020)
Дата кодирования : UTC 2020-09-10 10:47:21
Программа кодирования : mkvmerge v47.0.0 ('Black Flag') 64-bit
Библиотека кодирования : libebml v1.3.10 + libmatroska v1.5.2
Обложка : Yes
Attachments : cover.jpg

Видео
Идентификатор : 1
Формат : AVC
Формат/Информация : Advanced Video Codec
Профиль формата : [email protected]
Настройки формата : CABAC / 10 Ref Frames
Параметр CABAC формата : Да
Параметр RefFrames формата : 10 кадров
Идентификатор кодека : V_MPEG4/ISO/AVC
Продолжительность : 1 ч. 55 м.
Битрейт : 1 616 Кбит/сек
Ширина : 864 пикселя
Высота : 360 пикселей
Соотношение сторон : 2,40:1
Режим частоты кадров : Постоянный
Частота кадров : 23,976 кадра/сек
Цветовое пространство : YUV
Субдискретизация насыщенности : 4:2:0
Битовая глубина : 8 бит
Тип развёртки : Прогрессивная
Бит/(Пиксели*Кадры) : 0.217
Размер потока : 1,30 Гбайт (89%)
Заголовок : #stillet
Библиотека кодирования : x264 core 152 r2851bm ba24899
Настройки программы : cabac=1 / ref=10 / deblock=1:-2:-2 / analyse=0x3:0x113 / me=umh / subme=11 / psy=1 / psy_rd=1.00:0.15 / mixed_ref=1 / me_range=32 / chroma_me=1 / trellis=2 / 8x8dct=1 / cqm=0 / deadzone=21,11 / fast_pskip=0 / chroma_qp_offset=-3 / threads=8 / lookahead_threads=3 / sliced_threads=0 / nr=0 / decimate=0 / interlaced=0 / bluray_compat=0 / constrained_intra=0 / bframes=12 / b_pyramid=2 / b_adapt=2 / b_bias=0 / direct=3 / weightb=1 / open_gop=0 / weightp=2 / keyint=240 / keyint_min=23 / scenecut=40 / intra_refresh=0 / rc=2pass / mbtree=0 / bitrate=1616 / ratetol=1.0 / qcomp=0.60 / qpmin=0 / qpmax=69 / qpstep=4 / cplxblur=20.0 / qblur=0.5 / ip_ratio=1.40 / pb_ratio=1.30 / aq=1:1.00
Язык : English
Default : Да
Forced : Нет

Аудио
Идентификатор : 2
Формат : AC-3
Формат/Информация : Audio Coding 3
Коммерческое название : Dolby Digital
Идентификатор кодека : A_AC3
Продолжительность : 1 ч. 55 м.
Вид битрейта : Постоянный
Битрейт : 192 Кбит/сек
Каналы : 2 канала
Channel layout : L R
Частота : 48,0 КГц
Частота кадров : 31,250 кадров/сек (1536 SPF)
Метод сжатия : С потерями
Размер потока : 158 Мбайт (11%)
Заголовок : iTunes
Язык : Russian
Service kind : Complete Main
Default : Да
Forced : Да

Текст
Идентификатор : 3
Формат : UTF-8
Идентификатор кодека : S_TEXT/UTF8
Идентификатор кодека/Информация : UTF-8 Plain Text
Продолжительность : 1 ч. 54 м.
Битрейт : 72 бит/сек
Count of elements : 1596
Размер потока : 61,3 Кбайт (0%)
Заголовок : SDH
Язык : German
Default : Нет
Forced : Нет

Меню
00:00:00.000 : en:00:00:00.000
00:09:41.748 : en:00:09:41.748
00:18:27.148 : en:00:18:27.148
00:26:49.566 : en:00:26:49.566
00:35:57.197 : en:00:35:57.197
00:43:24.727 : en:00:43:24.727
00:52:22.473 : en:00:52:22.473
01:02:01.468 : en:01:02:01.468
01:11:18.649 : en:01:11:18.649
01:20:52.222 : en:01:20:52.222
01:29:11.680 : en:01:29:11.680
01:41:01.097 : en:01:41:01.097

Download
Для скачивания .torrent файлов необходима регистрация
Сайт не распространяет и не хранит электронные версии произведений, а лишь предоставляет доступ к создаваемому пользователями каталогу ссылок на торрент-файлы, которые содержат только списки хеш-сумм

Страница 1 из 1

Ответить на тему

   Похожие торренты   Торрент 




tracker_crontracker_cron