Регистрация ·  Логин: Пароль: Запомнить   · Забыли пароль?




Ответить на тему
Статистика раздачи
Размер: 1.88 ГБ | Зарегистрирован: 13 окт 2020, 17:03 | .torrent скачан: 0 раз(а), DHT: [ 0 ] раз(а)
Сидеров: [ 0  | 0 байт/сек ]   Личеров: [ 0  | 0 байт/сек ]   DHT: [ 0 / 0 ]
Автор Сообщение

Модератор

С нами: 2 года 4 месяца
Сообщения: 3361
Россия

Сообщение 13 окт 2020, 17:03 

[Цитировать]


Информация о фильме
Название: 20 лет: разведена и великолепна
Оригинальное название: Veinteañera: Divorciada y Fantástica
Год выхода: 2020
Жанр: мелодрама, комедия
Режиссер: Ноэ Сантильян-Лопес
В ролях: Паулина Гото, Хесус Савала, Вадир Дербес, Natalia Tellez, Эла Вельден, Хиселья Кури, Ана Гонсалес Белло, Эдуардо Арроюэло, Хуан Карлос Баррето, Клаудио Рокка

О фильме:
Главная героиня, Реджина, всегда мечтала выйти замуж. А когда вышла, брак её продлился совсем не так долго, как она себе представляла. Теперь ей нужно научиться жить после развода.



Страна: Мексика
Студия: Different Films
Продолжительность: 01:34:47
Перевод: любительский многоголосый, закадровый [Синема УС]
Реклама: отсутствует (работа со звуком - maksciganov)

Файл
Кодек: H.264
Качество: WEBRip 1080p
Видео: AVC, 1920x1080 (2.40:1), 23.976 fps ~ 2512 Kbps
Звук:
AC3, 48 KHz, 2 ch ~ 192 Kb/s (русский)
AAC, 48 KHz, 2 ch ~ 128 Kb/s (испанский)
Субтитры: отсутствуют

Общее
Уникальный идентификатор : 223329273748566029033377839229303582366 (0xA803A750D389A6A8998DA449D6DCEE9E)
Полное имя : J:wotVeinteanera.Divorciada_y_Fantastica.1080p.mkv
Формат : Matroska
Версия формата : Version 4
Размер файла : 1,88 Гбайт
Продолжительность : 1 ч. 34 м.
Общий поток : 2 835 Кбит/сек
Дата кодирования : UTC 2020-09-10 09:10:30
Программа кодирования : mkvmerge v7.7.0 ('Six Voices') 32bit built on Feb 28 2015 23:23:00
Библиотека кодирования : libebml v1.3.1 + libmatroska v1.4.2

Видео
Идентификатор : 1
Формат : AVC
Формат/Информация : Advanced Video Codec
Профиль формата : [email protected]
Настройки формата : CABAC / 3 Ref Frames
Параметр CABAC формата : Да
Параметр RefFrames формата : 3 кадра
Идентификатор кодека : V_MPEG4/ISO/AVC
Продолжительность : 1 ч. 34 м.
Битрейт : 2 512 Кбит/сек
Ширина : 1 920 пикселей
Высота : 800 пикселей
Соотношение сторон : 2,40:1
Режим частоты кадров : Постоянный
Частота кадров : 23,976 (24000/1001) кадра/сек
Цветовое пространство : YUV
Субдискретизация насыщенности : 4:2:0
Битовая глубина : 8 бит
Тип развёртки : Прогрессивная
Бит/(Пиксели*Кадры) : 0.068
Размер потока : 1,66 Гбайт (89%)
Язык : English
Default : Да
Forced : Нет

Аудио #1
Идентификатор : 2
Формат : AC-3
Формат/Информация : Audio Coding 3
Коммерческое название : Dolby Digital
Идентификатор кодека : A_AC3
Продолжительность : 1 ч. 34 м.
Вид битрейта : Постоянный
Битрейт : 192 Кбит/сек
Каналы : 2 канала
Channel layout : L R
Частота : 48,0 КГц
Частота кадров : 31,250 кадров/сек (1536 SPF)
Метод сжатия : С потерями
Размер потока : 130 Мбайт (7%)
Заголовок : mvo
Язык : Russian
Service kind : Complete Main
Default : Да
Forced : Нет

Аудио #2
Идентификатор : 3
Формат : AAC LC
Формат/Информация : Advanced Audio Codec Low Complexity
Идентификатор кодека : A_AAC-2
Продолжительность : 1 ч. 34 м.
Битрейт : 128 Кбит/сек
Каналы : 2 канала
Channel layout : L R
Частота : 48,0 КГц
Частота кадров : 46,875 кадров/сек (1024 SPF)
Метод сжатия : С потерями
Размер потока : 86,8 Мбайт (5%)
Язык : Spanish
Default : Нет
Forced : Нет


СЕМПЛ


Download
Для скачивания .torrent файлов необходима регистрация
Сайт не распространяет и не хранит электронные версии произведений, а лишь предоставляет доступ к создаваемому пользователями каталогу ссылок на торрент-файлы, которые содержат только списки хеш-сумм

Страница 1 из 1

Ответить на тему

   Похожие торренты   Торрент 




tracker_crontracker_cron