Регистрация ·  Логин: Пароль: Запомнить   · Забыли пароль?




Ответить на тему
Статистика раздачи
Размер: 3.28 ГБ | Зарегистрирован: 13 окт 2020, 17:03 | .torrent скачан: 0 раз(а), DHT: [ 0 ] раз(а)
Сидеров: [ 0  | 0 байт/сек ]   Личеров: [ 0  | 0 байт/сек ]   DHT: [ 0 / 0 ]
Автор Сообщение

Модератор

С нами: 2 года 5 месяцев
Сообщения: 3401
Россия

Сообщение 13 окт 2020, 17:03 

[Цитировать]


Информация о фильме
Название: Тайное происхождение
Оригинальное название: Orígenes secretos
Год выхода: 2020
Жанр: Боевик, триллер, драма, криминал, приключения
Режиссер: Дэвид Галан Галиндо
В ролях: Леонардо Сбаралья, Вероника Эчеги, Хавьер Рей, Алекс Гарсия, Эрнесто Альтерио, Брайс Эфе, Антонио Ресинес, Карлос Аресес, Роман Римар, Фран Блю

О фильме: Нам первоначально предстоит узнать о достаточно пугающих событий, с которыми сталкиваются в свою очередь местные граждане Испанского Мадрида. Именно в эти края был командирован молодой, но обладающий определенным чутьем и интуицией сотрудник правоохранительных органов по имени Дэвид. Ему естественно по долгу своих обязанностей необходимо в крайний срок выйти на предполагаемого душегуба, творящего бесчинства.

Ему нужно начать следственные мероприятия, которые сведут с пареньком Хорхе, выполняющим непосредственную работу странноватого продавца комиксов. Так как все убитые жертвы кровавого маньяка фактически ни чем не связаны, кроме появления каких-то комикс-историй, главные герои вынужденно объединят собственные усилия, чтобы любыми путями, рискуя жизнью, в точности определить преступника и соответственно отправить того за решетку.



Страна: Испания
Студия: In Post We Trust, La Chica de la Curva, Nadie es Perfecto
Продолжительность: 01:36:59
Перевод: Любительский двухголосый | OnisFilms

Файл
Кодек: MPEG-4 AVC
Качество: WEB-DL 1080p
Видео: 4020 Кбит/с, 1920x1080, 24.000 кадр/с
Звук:
Аудио #1: AC3, 48 Гц, 192 Кбит/сек, 2 ch (L+R) | Русский
Аудио #2: AC3, 48 Гц, 640 Кбит/сек, 6 ch (L C R, + L R, LFE) | Испанский


Общее
Уникальный идентификатор : 29246718206088768527050454315762350999 (0x1600B68994AE4B538D84177DCF427B97)
Полное имя : D:ТоррентыOrígenes secretos [1080p]Taynoe.proishozhdenie.2020.x264.WEB-DL(1080p)-MediaBit.mkv
Формат : Matroska
Версия формата : Version 4
Размер файла : 3,28 Гбайт
Продолжительность : 1 ч. 36 м.
Режим общего битрейта : Переменный
Общий поток : 4 843 Кбит/сек
Название фильма : Тайное происхождение / Orígenes secretos (2020)
Дата кодирования : UTC 2020-09-10 08:53:20
Программа кодирования : mkvmerge v25.0.0 ('Prog Noir') 64-bit
Библиотека кодирования : libebml v1.3.6 + libmatroska v1.4.9

Видео
Идентификатор : 1
Формат : AVC
Формат/Информация : Advanced Video Codec
Профиль формата : [email protected]
Настройки формата : CABAC / 3 Ref Frames
Параметр CABAC формата : Да
Параметр RefFrames формата : 3 кадра
Идентификатор кодека : V_MPEG4/ISO/AVC
Продолжительность : 1 ч. 36 м.
Вид битрейта : Переменный
Битрейт : 4 020 Кбит/сек
Максимальный битрейт : 6 030 Кбит/сек
Ширина : 1 920 пикселей
Высота : 1 080 пикселей
Соотношение сторон : 16:9
Режим частоты кадров : Постоянный
Частота кадров : 24,000 кадра/сек
Цветовое пространство : YUV
Субдискретизация насыщенности : 4:2:0
Битовая глубина : 8 бит
Тип развёртки : Прогрессивная
Бит/(Пиксели*Кадры) : 0.081
Размер потока : 2,72 Гбайт (83%)
Библиотека кодирования : x264 core 148 r2721 6d200cf
Настройки программы : cabac=1 / ref=3 / deblock=1:0:0 / analyse=0x1:0x111 / me=umh / subme=10 / psy=1 / psy_rd=1.00:0.00 / mixed_ref=1 / me_range=24 / chroma_me=1 / trellis=2 / 8x8dct=0 / cqm=0 / deadzone=21,11 / fast_pskip=1 / chroma_qp_offset=-2 / threads=6 / lookahead_threads=1 / sliced_threads=0 / nr=0 / decimate=1 / interlaced=0 / bluray_compat=0 / stitchable=1 / constrained_intra=0 / bframes=2 / b_pyramid=0 / b_adapt=2 / b_bias=0 / direct=3 / weightb=1 / open_gop=0 / weightp=2 / keyint=250 / keyint_min=24 / scenecut=0 / intra_refresh=0 / rc_lookahead=48 / rc=2pass / mbtree=1 / bitrate=4020 / ratetol=1.0 / qcomp=0.50 / qpmin=6 / qpmax=51 / qpstep=4 / cplxblur=20.0 / qblur=0.5 / vbv_maxrate=6030 / vbv_bufsize=8040 / nal_hrd=vbr / filler=0 / ip_ratio=1.40 / aq=1:1.00
Язык : Spanish
Default : Да
Forced : Нет

Аудио #1
Идентификатор : 2
Формат : AC-3
Формат/Информация : Audio Coding 3
Коммерческое название : Dolby Digital
Идентификатор кодека : A_AC3
Продолжительность : 1 ч. 36 м.
Вид битрейта : Постоянный
Битрейт : 192 Кбит/сек
Каналы : 2 канала
Channel layout : L R
Частота : 48,0 КГц
Частота кадров : 31,250 кадров/сек (1536 SPF)
Метод сжатия : С потерями
Размер потока : 133 Мбайт (4%)
Заголовок : DVO | OnisFilms
Язык : Russian
Service kind : Complete Main
Default : Да
Forced : Нет

Аудио #2
Идентификатор : 3
Формат : AC-3
Формат/Информация : Audio Coding 3
Коммерческое название : Dolby Digital
Идентификатор кодека : A_AC3
Продолжительность : 1 ч. 36 м.
Вид битрейта : Постоянный
Битрейт : 640 Кбит/сек
Каналы : 6 каналов
Channel layout : L R C LFE Ls Rs
Частота : 48,0 КГц
Частота кадров : 31,250 кадров/сек (1536 SPF)
Метод сжатия : С потерями
Размер потока : 444 Мбайт (13%)
Язык : Spanish
Service kind : Complete Main
Default : Нет
Forced : Нет


Релиз от:


Download
Для скачивания .torrent файлов необходима регистрация
Сайт не распространяет и не хранит электронные версии произведений, а лишь предоставляет доступ к создаваемому пользователями каталогу ссылок на торрент-файлы, которые содержат только списки хеш-сумм

Страница 1 из 1

Ответить на тему

   Похожие торренты   Торрент