Регистрация ·  Логин: Пароль: Запомнить   · Забыли пароль?




Ответить на тему
Статистика раздачи
Размер: 1.45 ГБ | Зарегистрирован: 13 окт 2020, 17:02 | .torrent скачан: 0 раз(а), DHT: [ 0 ] раз(а)
Сидеров: [ 0  | 0 байт/сек ]   Личеров: [ 0  | 0 байт/сек ]   DHT: [ 0 / 0 ]
Автор Сообщение

Модератор

С нами: 2 года 5 месяцев
Сообщения: 3401
Россия

Сообщение 13 окт 2020, 17:02 

[Цитировать]


Информация о фильме
Название: Всё ещё здесь
Оригинальное название: Still Here
Год выхода: 2020
Жанр: Триллер, драма, криминал
Режиссер: Влад Фейер
В ролях: Джонни Витуорт, Зази Битц, Эфтон Уильямсон, Морис МакРей, Ларри Пайн, Джереми С. Холм, Джиа Кроватин, Дэнни Джонсон, Джастин А. Дэвис, Руперт Саймониан

О фильме: Когда в Бруклине пропадает двенадцатилетняя афроамериканка Моник Уотсон, полиция проявляет апатию, а ее отец Майкл обезумел. Из-за отсутствия вариантов Майкл объединяется с Кристианом Бейкером, журналистом, которому поручена история Моник. Поскольку общественный интерес ослабевает, а время уходит, Майкл и Кристиан спешат раскрыть правду - и найти Моник, пока не стало слишком поздно.



Страна: США
Студия: Atelier 44
Продолжительность: 01:37:07
Перевод: Любительский многоголосый | @[email protected]

Файл
Кодек: XviD
Качество: WEB-DLRip
Видео: 1941 Кбит/с, 720x304, 23.976 кадр/с
Звук: AC3, 48 Гц, 192 Кбит/сек, 2 ch (L + R) | MVO | @[email protected]


Общее
Полное имя : D:ТоррентыStill.Here.2020.1080p.WEBRip.DD5.1.x264-CMVsio.escho.zdes.2020.XviD.WEB-DLRip-MediaBit.avi
Формат : AVI
Формат/Информация : Audio Video Interleave
Профиль формата : OpenDML
Размер файла : 1,45 Гбайт
Продолжительность : 1 ч. 37 м.
Общий поток : 2 143 Кбит/сек
Название фильма : Still Here (2020)
Программа кодирования : Lavf58.20.100

Видео
Идентификатор : 0
Формат : MPEG-4 Visual
Профиль формата : Advanced [email protected]
Настройки формата : BVOP1 / Custom Matrix
Параметр BVOP формата : 1
Параметр QPel формата : Нет
Параметр GMC формата : Без точки перехода
Параметр матрицы формата : Выборочная
Идентификатор кодека : XVID
Идентификатор кодека/Подсказка : XviD
Продолжительность : 1 ч. 37 м.
Битрейт : 1 941 Кбит/сек
Ширина : 720 пикселей
Высота : 304 пикселя
Соотношение сторон : 2,40:1
Частота кадров : 23,976 (24000/1001) кадра/сек
Цветовое пространство : YUV
Субдискретизация насыщенности : 4:2:0
Битовая глубина : 8 бит
Тип развёртки : Прогрессивная
Метод сжатия : С потерями
Бит/(Пиксели*Кадры) : 0.370
Размер потока : 1,32 Гбайт (90%)
Заголовок : MediaBit
Библиотека кодирования : XviD 67

Аудио
Идентификатор : 1
Формат : AC-3
Формат/Информация : Audio Coding 3
Коммерческое название : Dolby Digital
Идентификатор кодека : 2000
Продолжительность : 1 ч. 37 м.
Вид битрейта : Постоянный
Битрейт : 192 Кбит/сек
Каналы : 2 канала
Channel layout : L R
Частота : 48,0 КГц
Частота кадров : 31,250 кадров/сек (1536 SPF)
Битовая глубина : 16 бит
Метод сжатия : С потерями
Размер потока : 133 Мбайт (9%)
Выравнивание : Соединение по промежуткам
Продолжительность промежутка : 32 мс. (0,77 видеокадр)
Заголовок : MVO [@[email protected]] MediaBit
Service kind : Complete Main



Релиз от:


Download
Для скачивания .torrent файлов необходима регистрация
Сайт не распространяет и не хранит электронные версии произведений, а лишь предоставляет доступ к создаваемому пользователями каталогу ссылок на торрент-файлы, которые содержат только списки хеш-сумм

Страница 1 из 1

Ответить на тему

   Похожие торренты   Торрент