Регистрация ·  Логин: Пароль: Запомнить   · Забыли пароль?




Ответить на тему
Статистика раздачи
Размер: 7.85 ГБ | Зарегистрирован: 13 окт 2020, 17:01 | .torrent скачан: 0 раз(а), DHT: [ 0 ] раз(а)
Сидеров: [ 0  | 0 байт/сек ]   Личеров: [ 0  | 0 байт/сек ]   DHT: [ 0 / 0 ]
Автор Сообщение

Модератор

С нами: 2 года 4 месяца
Сообщения: 3361
Россия

Сообщение 13 окт 2020, 17:01 

[Цитировать]



Название: Мулан
Оригинальное название: Mulan
Год выхода: 2020
Жанр: Драма, боевик, фэнтези
Режиссер: Ники Каро
В ролях: Ифэй Лю, Донни Йен, Гун Ли, Джет Ли, Джейсон Скотт Ли, Йосон Ань, Ци Ма, Розалинд Чао, Чжэн Пэйпэй, Сюзанна Тан

О фильме: Изданный императором Китая указ о призыве на службу в армии одного мужчины из каждой семьи для защиты страны от северных захватчиков вдохновляет Мулан, старшую дочь почетного воина, занять в войсках место больного отца. Маскируясь под мужчину, девушка подвергается испытаниям на каждом шагу, проявляя свои внутреннюю силу и истинный потенциал. Мулан ждет эпичное путешествие, которое превратит её в доблестного воина, позволит заслужить уважение народа и стать гордостью отца.

Страна: США, Китай, Канада
Студия: Walt Disney Pictures, Jason T. Reed Productions, Good Fear Content
Продолжительность: 01:55:08
Перевод: Профессиональный (многоголосый закадровый) | FocusX
Профессиональный (многоголосый закадровый) | IdeaFilm

Формат: MKV
Качество: WEB-DL 1080p
Видео: MPEG-4 AVC, 1920x1080 (16:9), 23.976 fps, 8291 Kbps, 0.167 bit/pixel
Аудио #01: 48 kHz, AC3, 5.1, 384 Kbps | FocusX | RUS |
Аудио #02: 48 kHz, AC3, 5.1, 448 Kbps | IdeaFilm | RUS |
Аудио #03: 48 kHz, AC3, 5.1, 448 Kbps | Оригинал | ENG |
Субтитры: Русские (Focs), английские
General
Unique ID : 193092929521370074489058017438795044129 (0x91445872C8B97FC7BF63840BD06C1521)
Complete name : G:Mulan.2020.2xRus.WEB-DL.1080p.ExKinoRay.mkv
Format : Matroska
Format version : Version 2
File size : 7.85 GiB
Duration : 1 h 55 min
Overall bit rate mode : Variable
Overall bit rate : 9 765 kb/s
Movie name : Mulan 2020 from ExKinoRay
Encoded date : UTC 2020-09-09 04:16:12
Writing application : mkvmerge v5.6.0 ('Kenya Kane') built on May 27 2012 16:44:04
Writing library : libebml v1.2.3 + libmatroska v1.3.0

Video
ID : 1
Format : AVC
Format/Info : Advanced Video Codec
Format profile : [email protected]
Format settings, CABAC : Yes
Format settings, ReFrames : 4 frames
Codec ID : V_MPEG4/ISO/AVC
Duration : 1 h 55 min
Bit rate mode : Variable
Bit rate : 8 291 kb/s
Maximum bit rate : 12.7 Mb/s
Width : 1 920 pixels
Height : 1 080 pixels
Display aspect ratio : 16:9
Frame rate mode : Constant
Frame rate : 23.976 (24000/1001) FPS
Color space : YUV
Chroma subsampling : 4:2:0
Bit depth : 8 bits
Scan type : Progressive
Bits/(Pixel*Frame) : 0.167
Stream size : 6.67 GiB (85%)
Language : English
Default : Yes
Forced : No
Color range : Limited
Color primaries : BT.709
Transfer characteristics : BT.709
Matrix coefficients : BT.709

Audio #1
ID : 2
Format : AC-3
Format/Info : Audio Coding 3
Mode extension : CM (complete main)
Format settings, Endianness : Big
Codec ID : A_AC3
Duration : 1 h 55 min
Bit rate mode : Constant
Bit rate : 384 kb/s
Channel(s) : 6 channels
Channel positions : Front: L C R, Side: L R, LFE
Sampling rate : 48.0 kHz
Frame rate : 31.250 FPS (1536 spf)
Compression mode : Lossy
Stream size : 316 MiB (4%)
Title : MVO (FocusX)
Language : Russian
Default : Yes
Forced : No

Audio #2
ID : 3
Format : AC-3
Format/Info : Audio Coding 3
Mode extension : CM (complete main)
Format settings, Endianness : Big
Codec ID : A_AC3
Duration : 1 h 55 min
Bit rate mode : Constant
Bit rate : 448 kb/s
Channel(s) : 6 channels
Channel positions : Front: L C R, Side: L R, LFE
Sampling rate : 48.0 kHz
Frame rate : 31.250 FPS (1536 spf)
Compression mode : Lossy
Stream size : 369 MiB (5%)
Title : MVO (IdeaFilm)
Language : Russian
Default : No
Forced : No

Audio #3
ID : 4
Format : AC-3
Format/Info : Audio Coding 3
Mode extension : CM (complete main)
Format settings, Endianness : Big
Codec ID : A_AC3
Duration : 1 h 55 min
Bit rate mode : Constant
Bit rate : 448 kb/s
Channel(s) : 6 channels
Channel positions : Front: L C R, Side: L R, LFE
Sampling rate : 48.0 kHz
Frame rate : 31.250 FPS (1536 spf)
Compression mode : Lossy
Stream size : 369 MiB (5%)
Language : English
Default : No
Forced : No

Text #1
ID : 5
Format : UTF-8
Codec ID : S_TEXT/UTF8
Codec ID/Info : UTF-8 Plain Text
Title : Full (Focs)
Language : Russian
Default : No
Forced : No

Text #2
ID : 6
Format : UTF-8
Codec ID : S_TEXT/UTF8
Codec ID/Info : UTF-8 Plain Text
Language : English
Default : No
Forced : No



Релиз от:

Автор релиза:

Download
Для скачивания .torrent файлов необходима регистрация
Сайт не распространяет и не хранит электронные версии произведений, а лишь предоставляет доступ к создаваемому пользователями каталогу ссылок на торрент-файлы, которые содержат только списки хеш-сумм

Страница 1 из 1

Ответить на тему

   Похожие торренты   Торрент 




tracker_crontracker_cron