Регистрация ·  Логин: Пароль: Запомнить   · Забыли пароль?




Ответить на тему
Статистика раздачи
Размер: 1.37 ГБ | Зарегистрирован: 13 окт 2020, 16:17 | .torrent скачан: 0 раз(а), DHT: [ 1927 ] раз(а)
Сидеров: [ 50  | 0 байт/сек ]   Личеров: [ 4  | 0 байт/сек ]   DHT: [ 50 / 4 ]
Автор Сообщение

Модератор

С нами: 2 года 4 месяца
Сообщения: 3361
Россия

Сообщение 13 окт 2020, 16:17 

[Цитировать]


Информация о фильме
Название: Перегрузка
Оригинальное название: G-Loc
Год выхода: 2020
Жанр: Фантастика
Режиссер: Том Пейтон
В ролях: Стивен Мойер, Тала Гувейя, Каспер Ван Дин, Эмили Хэй, Тоби Осмонд, Шэйн Уорд, Алана Уоллес, Майк Бэкингэм, Джон Рис-Дэвис, Спенсер Коллингс

О фильме: В недалёком будущем, когда Земля оказывается на пороге нового ледникового периода, а человечество - на грани выживания, на земной орбите появляется загадочный портал в другую солнечную систему, где существует пригодная для жизни планета Рейя. Первые переселенцы успешно колонизируют её, но воспользовавшись временной разницей и выгодными условиями, совершают технологический прорыв и закрывают путь для последующих полётов, обрекая остатки человечества на медленное вымирание. Фильм повествует историю Брана Маршалла - одного из миллионов беженцев, которые пытаются тайно пробраться на спасительную планету. Однако на подлёте его корабль сбивают, и он начинает медленно дрейфовать в открытый космос. Потеряв надежду, он уже начинает готовиться к смерти, когда внезапно судьба дарит ему неожиданный шанс.



Страна: Великобритания
Студия: Goldfinch, Highfield Grange Studios
Продолжительность: 01:33:01
Перевод: Любительский многоголосый | @[email protected]

Файл
Кодек: XviD
Качество: WEB-DLRip
Видео: 1907 Кбит/с, 720x304, 23.976 кадр/с
Звук: AC3, 48 Гц, 192 Кбит/сек, 2 ch (L + R) | MVO | @[email protected]


Общее
Полное имя : D:ТоррентыG-LOC.2020.1080p.AMZN.WEBRip.DDP5.1.x264-NTGG-LOC.2020.XviD.WEB-DLRip-MediaBiit.avi
Формат : AVI
Формат/Информация : Audio Video Interleave
Профиль формата : OpenDML
Размер файла : 1,37 Гбайт
Продолжительность : 1 ч. 33 м.
Общий поток : 2 111 Кбит/сек
Название фильма : G-Loc (2020)
Программа кодирования : Lavf58.20.100

Видео
Идентификатор : 0
Формат : MPEG-4 Visual
Профиль формата : Advanced [email protected]
Настройки формата : BVOP1 / Custom Matrix
Параметр BVOP формата : 1
Параметр QPel формата : Нет
Параметр GMC формата : Без точки перехода
Параметр матрицы формата : Выборочная
Идентификатор кодека : XVID
Идентификатор кодека/Подсказка : XviD
Продолжительность : 1 ч. 33 м.
Битрейт : 1 907 Кбит/сек
Ширина : 720 пикселей
Высота : 304 пикселя
Соотношение сторон : 2,35:1
Частота кадров : 23,976 (24000/1001) кадра/сек
Цветовое пространство : YUV
Субдискретизация насыщенности : 4:2:0
Битовая глубина : 8 бит
Тип развёртки : Прогрессивная
Метод сжатия : С потерями
Бит/(Пиксели*Кадры) : 0.363
Размер потока : 1,24 Гбайт (90%)
Заголовок : MediaBit
Библиотека кодирования : XviD 67

Аудио
Идентификатор : 1
Формат : AC-3
Формат/Информация : Audio Coding 3
Коммерческое название : Dolby Digital
Идентификатор кодека : 2000
Продолжительность : 1 ч. 33 м.
Вид битрейта : Постоянный
Битрейт : 192 Кбит/сек
Каналы : 2 канала
Channel layout : L R
Частота : 48,0 КГц
Частота кадров : 31,250 кадров/сек (1536 SPF)
Битовая глубина : 16 бит
Метод сжатия : С потерями
Размер потока : 128 Мбайт (9%)
Выравнивание : Соединение по промежуткам
Продолжительность промежутка : 32 мс. (0,77 видеокадр)
Заголовок : MVO [@[email protected]] MediaBit
Service kind : Complete Main



Релиз от:

Download
Для скачивания .torrent файлов необходима регистрация
Сайт не распространяет и не хранит электронные версии произведений, а лишь предоставляет доступ к создаваемому пользователями каталогу ссылок на торрент-файлы, которые содержат только списки хеш-сумм

Страница 1 из 1

Ответить на тему

   Похожие торренты   Торрент 




tracker_crontracker_cron