Регистрация ·  Логин: Пароль: Запомнить   · Забыли пароль?




Ответить на тему
Статистика раздачи
Размер: 5.61 ГБ | Зарегистрирован: 13 окт 2020, 16:17 | .torrent скачан: 0 раз(а), DHT: [ 0 ] раз(а)
Сидеров: [ 0  | 0 байт/сек ]   Личеров: [ 0  | 0 байт/сек ]   DHT: [ 0 / 0 ]
Автор Сообщение

Модератор видео

Стаж: 2 года 6 месяцев
Сообщения: 2485
Россия

Сообщение 13 окт 2020, 16:17 

[Цитировать]


Информация о фильме
Название: Перегрузка
Оригинальное название: G-Loc
Год выхода: 2020
Жанр: Фантастика
Режиссер: Том Пейтон
В ролях: Стивен Мойер, Тала Гувейя, Каспер Ван Дин, Эмили Хэй, Тоби Осмонд, Шэйн Уорд, Алана Уоллес, Майк Бэкингэм, Джон Рис-Дэвис, Спенсер Коллингс

О фильме: В недалёком будущем, когда Земля оказывается на пороге нового ледникового периода, а человечество - на грани выживания, на земной орбите появляется загадочный портал в другую солнечную систему, где существует пригодная для жизни планета Рейя. Первые переселенцы успешно колонизируют её, но воспользовавшись временной разницей и выгодными условиями, совершают технологический прорыв и закрывают путь для последующих полётов, обрекая остатки человечества на медленное вымирание. Фильм повествует историю Брана Маршалла - одного из миллионов беженцев, которые пытаются тайно пробраться на спасительную планету. Однако на подлёте его корабль сбивают, и он начинает медленно дрейфовать в открытый космос. Потеряв надежду, он уже начинает готовиться к смерти, когда внезапно судьба дарит ему неожиданный шанс.



Страна: Великобритания
Студия: Goldfinch, Highfield Grange Studios
Продолжительность: 01:33:01
Перевод: Любительский многоголосый | @[email protected]

Файл
Кодек: MPEG-4 AVC
Качество: WEB-DL 1080p
Видео: 7794 Кбит/с, 1920x1816, 23.976 кадр/с
Звук:
Аудио #1: AC3, 48 Гц, 192 Кбит/сек, 2 ch (L + R) | MVO | @[email protected]
Аудио #2: AC3, 48 Гц, 640 Кбит/сек, 6 ch (L C R, + L R, LFE) | Английский
Субтитры: Английские


Общее
Уникальный идентификатор : 222706252284716340849797513628350142931 (0xA78BA9FC6944C82DEEC8AB3FE47BD9D3)
Полное имя : D:ТоррентыG-LOC.2020.1080p.AMZN.WEBRip.DDP5.1.x264-NTGG-LOC.2020.x264.WEB-DL-1080p-MediaBiit.mkv
Формат : Matroska
Версия формата : Version 4
Размер файла : 5,61 Гбайт
Продолжительность : 1 ч. 33 м.
Общий поток : 8 629 Кбит/сек
Название фильма : Перегрузка / G-Loc (2020)
Дата кодирования : UTC 2020-09-19 13:01:14
Программа кодирования : mkvmerge v25.0.0 ('Prog Noir') 64-bit
Библиотека кодирования : libebml v1.3.6 + libmatroska v1.4.9

Видео
Идентификатор : 1
Формат : AVC
Формат/Информация : Advanced Video Codec
Профиль формата : [email protected]
Настройки формата : CABAC / 4 Ref Frames
Параметр CABAC формата : Да
Параметр RefFrames формата : 4 кадра
Идентификатор кодека : V_MPEG4/ISO/AVC
Продолжительность : 1 ч. 33 м.
Вид битрейта : Постоянный
Битрейт : 7 794 Кбит/сек
Номинальный битрейт : 10 000 Кбит/сек
Ширина : 1 920 пикселей
Высота : 816 пикселей
Соотношение сторон : 2,35:1
Режим частоты кадров : Постоянный
Частота кадров : 23,976 (24000/1001) кадра/сек
Цветовое пространство : YUV
Субдискретизация насыщенности : 4:2:0
Битовая глубина : 8 бит
Тип развёртки : Прогрессивная
Бит/(Пиксели*Кадры) : 0.207
Размер потока : 5,06 Гбайт (90%)
Заголовок : NTG
Язык : English
Default : Да
Forced : Нет
Цветовой диапазон : Limited
Основные цвета : BT.709
Характеристики трансфера : BT.709
Коэффициенты матрицы : BT.709

Аудио #1
Идентификатор : 2
Формат : AC-3
Формат/Информация : Audio Coding 3
Коммерческое название : Dolby Digital
Идентификатор кодека : A_AC3
Продолжительность : 1 ч. 33 м.
Вид битрейта : Постоянный
Битрейт : 192 Кбит/сек
Каналы : 2 канала
Channel layout : L R
Частота : 48,0 КГц
Частота кадров : 31,250 кадров/сек (1536 SPF)
Метод сжатия : С потерями
Размер потока : 128 Мбайт (2%)
Заголовок : MVO [@[email protected]] MediaBit
Язык : Russian
Service kind : Complete Main
Default : Да
Forced : Нет

Аудио #2
Идентификатор : 3
Формат : AC-3
Формат/Информация : Audio Coding 3
Коммерческое название : Dolby Digital
Идентификатор кодека : A_AC3
Продолжительность : 1 ч. 33 м.
Вид битрейта : Постоянный
Битрейт : 640 Кбит/сек
Каналы : 6 каналов
Channel layout : L R C LFE Ls Rs
Частота : 48,0 КГц
Частота кадров : 31,250 кадров/сек (1536 SPF)
Метод сжатия : С потерями
Размер потока : 426 Мбайт (7%)
Язык : English
Service kind : Complete Main
Default : Нет
Forced : Нет

Текст #1
Идентификатор : 4
Формат : UTF-8
Идентификатор кодека : S_TEXT/UTF8
Идентификатор кодека/Информация : UTF-8 Plain Text
Продолжительность : 1 ч. 27 м.
Битрейт : 47 бит/сек
Count of elements : 921
Размер потока : 30,1 Кбайт (0%)
Язык : English
Default : Нет
Forced : Нет

Текст #2
Идентификатор : 5
Формат : UTF-8
Идентификатор кодека : S_TEXT/UTF8
Идентификатор кодека/Информация : UTF-8 Plain Text
Продолжительность : 1 ч. 27 м.
Битрейт : 53 бит/сек
Count of elements : 1112
Размер потока : 34,5 Кбайт (0%)
Заголовок : SDH
Язык : English
Default : Нет
Forced : Нет


Релиз от:

Download
Для скачивания .torrent файлов необходима регистрация
Сайт не распространяет и не хранит электронные версии произведений, а лишь предоставляет доступ к создаваемому пользователями каталогу ссылок на торрент-файлы, которые содержат только списки хеш-сумм

Страница 1 из 1

Ответить на тему

   Похожие торренты   Торрент 




tracker_crontracker_crontracker_cron