Регистрация ·  Логин: Пароль: Запомнить   · Забыли пароль?




Ответить на тему
Статистика раздачи
Размер: 744.18 МБ | Зарегистрирован: 13 окт 2020, 16:16 | .torrent скачан: 0 раз(а), DHT: [ 0 ] раз(а)
Сидеров: [ 0  | 0 байт/сек ]   Личеров: [ 0  | 0 байт/сек ]   DHT: [ 0 / 0 ]
Автор Сообщение

Модератор

С нами: 2 года 4 месяца
Сообщения: 3361
Россия

Сообщение 13 окт 2020, 16:16 

[Цитировать]


Информация о фильме
Название: Полное уничтожение
Оригинальное название: Hard Kill
Год выхода: 2020
Жанр: Боевик, триллер
Режиссер: Мэтт Эскандари
В ролях: Брюс Уиллис, Джесси Меткалф, Серджо Риццуто, Лорин Кент, Тексас Бэттл, Натали Эва Мари, Свен Теммел, Тайлер Джон Олсон, Александр Экерт, Лесли Эмметт

О фильме:
История миллиардера Донована Чалмерса, который является основателем и генеральным директором крупной IT-корпорации, где разрабатывается секретная компьютерная программа способная изменить мир. Мужчина ценит свое изобретение и даже для охраны нанимает группу опытных наемников, но забывает защитить собственную семью. Вскоре команда террористов похищают его дочь с целью завладеть программой и применить для теракта. Теперь у Донована остаются считанные часы, чтобы предотвратить уничтожения государства и спасти дочь...


Страна: США
Студия: Emmett/Furla/Oasis Films (EFO Films), BondIt Media Capital, Buffalo 8 Productions
Продолжительность: 01:38:22
Перевод: Дублированный | iTunes

Файл
Формат: MKV
Качество: BDRip-AVC
Видео: MPEG-4 AVC, 764x320, 982 Кбит/с
Аудио: AAC-HE, 2 ch, 76 Кбит/с
Субтитры: Нет

Общее
Уникальный идентификатор : 212832970669587617235575899329182861643 (0xA01E239E73DE0ED3B57DA194A9C0894B)
Полное имя : D:MOVIESHard.Kill.2020.BDRip-AVC.ExKinoRay.mkv
Формат : Matroska
Версия формата : Version 4
Размер файла : 744 Мбайт
Продолжительность : 1 ч. 38 м.
Общий поток : 1 058 Кбит/сек
Дата кодирования : UTC 2020-09-19 05:07:26
Программа кодирования : mkvmerge v45.0.0 ('Heaven in Pennies') 64-bit
Библиотека кодирования : libebml v1.3.10 + libmatroska v1.5.2

Видео
Идентификатор : 1
Формат : AVC
Формат/Информация : Advanced Video Codec
Профиль формата : [email protected]
Настройки формата : CABAC / 13 Ref Frames
Параметр CABAC формата : Да
Параметр RefFrames формата : 13 кадров
Идентификатор кодека : V_MPEG4/ISO/AVC
Продолжительность : 1 ч. 38 м.
Битрейт : 982 Кбит/сек
Ширина : 764 пикселя
Высота : 320 пикселей
Соотношение сторон : 2,40:1
Режим частоты кадров : Постоянный
Частота кадров : 23,976 (24000/1001) кадра/сек
Цветовое пространство : YUV
Субдискретизация насыщенности : 4:2:0
Битовая глубина : 8 бит
Тип развёртки : Прогрессивная
Бит/(Пиксели*Кадры) : 0.168
Размер потока : 690 Мбайт (93%)
Библиотека кодирования : x264 core 160 r3000 33f9e14
Настройки программы : cabac=1 / ref=13 / deblock=1:-2:-2 / analyse=0x3:0x133 / me=umh / subme=10 / psy=1 / psy_rd=1.05:0.13 / mixed_ref=1 / me_range=32 / chroma_me=1 / trellis=2 / 8x8dct=1 / cqm=0 / deadzone=21,11 / fast_pskip=0 / chroma_qp_offset=-3 / threads=6 / lookahead_threads=1 / sliced_threads=0 / nr=0 / decimate=0 / interlaced=0 / bluray_compat=0 / constrained_intra=0 / bframes=11 / b_pyramid=2 / b_adapt=2 / b_bias=0 / direct=3 / weightb=1 / open_gop=0 / weightp=2 / keyint=240 / keyint_min=23 / scenecut=40 / intra_refresh=0 / rc=2pass / mbtree=0 / bitrate=982 / ratetol=1.0 / qcomp=0.60 / qpmin=0 / qpmax=69 / qpstep=4 / cplxblur=20.0 / qblur=0.5 / ip_ratio=1.40 / pb_ratio=1.30 / aq=1:1.00
Default : Да
Forced : Нет
Цветовой диапазон : Limited
Основные цвета : BT.709
Характеристики трансфера : BT.709
Коэффициенты матрицы : BT.709

Аудио
Идентификатор : 2
Формат : AAC LC SBR
Формат/Информация : Advanced Audio Codec Low Complexity with Spectral Band Replication
Коммерческое название : HE-AAC
Настройки формата : Explicit
Идентификатор кодека : A_AAC-2
Продолжительность : 1 ч. 38 м.
Битрейт : 76,0 Кбит/сек
Каналы : 2 канала
Channel layout : L R
Частота : 48,0 КГц
Частота кадров : 23,438 кадра/сек (2048 SPF)
Метод сжатия : С потерями
Задержка видео : 31 мс.
Размер потока : 53,4 Мбайт (7%)
Default : Да
Forced : Нет

Меню
00:00:00.000 : en:Chapter 01
00:16:13.597 : en:Chapter 02
00:34:51.964 : en:Chapter 03
00:53:57.776 : en:Chapter 04
01:09:15.025 : en:Chapter 05
01:30:02.522 : en:Chapter 06



Download
Для скачивания .torrent файлов необходима регистрация
Сайт не распространяет и не хранит электронные версии произведений, а лишь предоставляет доступ к создаваемому пользователями каталогу ссылок на торрент-файлы, которые содержат только списки хеш-сумм

Страница 1 из 1

Ответить на тему

   Похожие торренты   Торрент 




cron
tracker_crontracker_cron