Регистрация ·  Логин: Пароль: Запомнить   · Забыли пароль?




Ответить на тему
Статистика раздачи
Размер: 2.13 ГБ | Зарегистрирован: 13 окт 2020, 16:15 | .torrent скачан: 0 раз(а), DHT: [ 0 ] раз(а)
Сидеров: [ 0  | 0 байт/сек ]   Личеров: [ 0  | 0 байт/сек ]   DHT: [ 0 / 0 ]
Автор Сообщение

Модератор

С нами: 2 года 4 месяца
Сообщения: 3361
Россия

Сообщение 13 окт 2020, 16:15 

[Цитировать]


Информация о фильме
Название: Коллекторы 2
Оригинальное название: The Debt Collector 2
Год выхода: 2020
Жанр: Боевик, криминал, комедия

Режиссер: Джесси Джонсон
В ролях: Скотт Эдкинс, Луис Мэндилор, Марина Сиртис, Демитра Сили, Вернон Уэллс, Катрин Блэк, Джозеф Кэннон, Ски Карр, Чарити Коллинз, Роберт Добсон

О фильме:
Сборщики долгов Френч и Сью приступают к работе, делая то, что у них получается лучше всего - ломают черепа и кости, гоняясь за разными подонками, которые должны деньги их боссу Томми. Напарников вызывают в Лас-Вегас, чтобы они забрали долг у нечистой на руку владелицы казино, которая, как оказалось, является бывшей любовницей Сью. Тем временем на тропу войны выходит наркобарон, жаждущий убить Фрэнчи и Сью и тем самым отомстить за смерть брата.



Страна: США
Студия: DC2 Productions, Leverage Film Funding, Tarzana Productions
Продолжительность: 01:37:24
Перевод:
• Профессиональный (полное дублирование) | iTunes
Файл
Качество: BDRip-AVC
Исходник: The.Debt.Collector.2.2020.BDREMUX.1080p.seleZen.mkv
Формат: MKV
Кодек: MPEG-4 AVC
Видео: 1024x428 (2,40:1), 23,976 fps, MPEG-4 AVC ~ 2304 Kbps avg, 0.219 bit/pixel
Аудио: AC3, 48 kHz, 6 ch, ~384.00 kbps avg | русский | iTunes
Аудио: AC3, 48 kHz, 6 ch, ~448.00 kbps avg | английский | Оригинал

Субтитры: Русские (Full), английские (SDH)
Общее
Уникальный идентификатор : 204328510660422487069673725392020187309 (0x99B83D5E1CD81E41EAF62A7C51DA28AD)
Полное имя : The.Debt.Collector.2.2020.BDRip.2.13Gb.x264.mkv
Формат : Matroska
Версия формата : Version 4
Размер файла : 2,13 Гбайт
Продолжительность : 1 ч. 37 м.
Общий поток : 3 138 Кбит/сек
Название фильма : Коллекторы 2 / The Debt Collector 2 (2020)
Дата кодирования : UTC 2020-09-18 08:24:08
Программа кодирования : mkvmerge v47.0.0 ('Black Flag') 64-bit
Библиотека кодирования : libebml v1.3.10 + libmatroska v1.5.2
Обложка : Yes
Attachments : cover.jpg

Видео
Идентификатор : 1
Формат : AVC
Формат/Информация : Advanced Video Codec
Профиль формата : [email protected]
Настройки формата : CABAC / 10 Ref Frames
Параметр CABAC формата : Да
Параметр RefFrames формата : 10 кадров
Идентификатор кодека : V_MPEG4/ISO/AVC
Продолжительность : 1 ч. 37 м.
Битрейт : 2 304 Кбит/сек
Ширина : 1 024 пикселя
Высота : 428 пикселей
Соотношение сторон : 2,40:1
Режим частоты кадров : Постоянный
Частота кадров : 23,976 кадра/сек
Цветовое пространство : YUV
Субдискретизация насыщенности : 4:2:0
Битовая глубина : 8 бит
Тип развёртки : Прогрессивная
Бит/(Пиксели*Кадры) : 0.219
Размер потока : 1,57 Гбайт (73%)
Заголовок : #stillet
Библиотека кодирования : x264 core 152 r2851bm ba24899
Настройки программы : cabac=1 / ref=10 / deblock=1:-2:-2 / analyse=0x3:0x113 / me=umh / subme=11 / psy=1 / psy_rd=1.00:0.15 / mixed_ref=1 / me_range=32 / chroma_me=1 / trellis=2 / 8x8dct=1 / cqm=0 / deadzone=21,11 / fast_pskip=0 / chroma_qp_offset=-3 / threads=8 / lookahead_threads=3 / sliced_threads=0 / nr=0 / decimate=0 / interlaced=0 / bluray_compat=0 / constrained_intra=0 / bframes=11 / b_pyramid=2 / b_adapt=2 / b_bias=0 / direct=3 / weightb=1 / open_gop=0 / weightp=2 / keyint=240 / keyint_min=23 / scenecut=40 / intra_refresh=0 / rc=2pass / mbtree=0 / bitrate=2304 / ratetol=1.0 / qcomp=0.60 / qpmin=0 / qpmax=69 / qpstep=4 / cplxblur=20.0 / qblur=0.5 / ip_ratio=1.40 / pb_ratio=1.30 / aq=1:1.00
Язык : English
Default : Да
Forced : Нет

Аудио #1
Идентификатор : 2
Формат : AC-3
Формат/Информация : Audio Coding 3
Коммерческое название : Dolby Digital
Идентификатор кодека : A_AC3
Продолжительность : 1 ч. 37 м.
Вид битрейта : Постоянный
Битрейт : 384 Кбит/сек
Каналы : 6 каналов
Channel layout : L R C LFE Ls Rs
Частота : 48,0 КГц
Частота кадров : 31,250 кадров/сек (1536 SPF)
Метод сжатия : С потерями
Размер потока : 267 Мбайт (12%)
Заголовок : iTunes
Язык : Russian
Service kind : Complete Main
Default : Да
Forced : Да

Аудио #2
Идентификатор : 3
Формат : AC-3
Формат/Информация : Audio Coding 3
Коммерческое название : Dolby Digital
Идентификатор кодека : A_AC3
Продолжительность : 1 ч. 37 м.
Вид битрейта : Постоянный
Битрейт : 448 Кбит/сек
Каналы : 6 каналов
Channel layout : L R C LFE Ls Rs
Частота : 48,0 КГц
Частота кадров : 31,250 кадров/сек (1536 SPF)
Метод сжатия : С потерями
Размер потока : 312 Мбайт (14%)
Язык : English
Service kind : Complete Main
Default : Нет
Forced : Нет

Текст #1
Идентификатор : 4
Формат : UTF-8
Идентификатор кодека : S_TEXT/UTF8
Идентификатор кодека/Информация : UTF-8 Plain Text
Продолжительность : 1 ч. 33 м.
Битрейт : 111 бит/сек
Count of elements : 1759
Размер потока : 76,4 Кбайт (0%)
Заголовок : Full
Язык : Russian
Default : Нет
Forced : Нет

Текст #2
Идентификатор : 5
Формат : UTF-8
Идентификатор кодека : S_TEXT/UTF8
Идентификатор кодека/Информация : UTF-8 Plain Text
Продолжительность : 1 ч. 32 м.
Битрейт : 84 бит/сек
Count of elements : 1743
Размер потока : 57,0 Кбайт (0%)
Заголовок : SDH
Язык : English
Default : Нет
Forced : Нет

Меню
00:00:00.000 : en:Глава 01
00:07:26.279 : en:Глава 02
00:19:40.805 : en:Глава 03
00:29:06.411 : en:Глава 04
00:35:54.069 : en:Глава 05
00:44:08.646 : en:Глава 06
00:49:22.793 : en:Глава 07
00:53:32.709 : en:Глава 08
01:06:05.753 : en:Глава 09
01:17:02.409 : en:Глава 10
01:29:06.466 : en:Глава 11
01:33:40.281 : en:Глава 12


Download
Для скачивания .torrent файлов необходима регистрация
Сайт не распространяет и не хранит электронные версии произведений, а лишь предоставляет доступ к создаваемому пользователями каталогу ссылок на торрент-файлы, которые содержат только списки хеш-сумм

Страница 1 из 1

Ответить на тему

   Похожие торренты   Торрент 




tracker_crontracker_cron