Регистрация ·  Логин: Пароль: Запомнить   · Забыли пароль?




Ответить на тему
Статистика раздачи
Размер: 4.88 ГБ | Зарегистрирован: 13 окт 2020, 16:15 | .torrent скачан: 0 раз(а), DHT: [ 0 ] раз(а)
Сидеров: [ 0  | 0 байт/сек ]   Личеров: [ 0  | 0 байт/сек ]   DHT: [ 0 / 0 ]
Автор Сообщение

Модератор

С нами: 2 года 4 месяца
Сообщения: 3361
Россия

Сообщение 13 окт 2020, 16:15 

[Цитировать]


Название: Полное уничтожение
Оригинальное название: Hard Kill
Год выхода: 2020
Жанр: Боевик, триллер
Режиссер: Мэтт Эскандари
В ролях: Брюс Уиллис, Джесси Меткалф, Серджо Риццуто, Лорин Кент, Тексас Бэттл, Лиа Хаттон Бисмор, Джон Е. Браунли, Джавон Кэмерон, Александр Экерт, Лесли Эмметт

О фильме: История миллиардера Донована Чалмерса, который является основателем и генеральным директором крупной IT-корпорации, где разрабатывается секретная компьютерная программа способная изменить мир. Мужчина ценит свое изобретение и даже для охраны нанимает группу опытных наемников, но забывает защитить собственную семью. Вскоре команда террористов похищают его дочь с целью завладеть программой и применить для теракта. Теперь у Донована остаются считанные часы, чтобы предотвратить уничтожения государства и спасти дочь...



Страна: США
Студия: Emmett/Furla/Oasis Films (EFO Films), BondIt Media Capital, Buffalo 8 Productions
Продолжительность: 01:38:22
Перевод: Дублированный | iTunes

Формат: MKV
Качество: BDRip 720p
Видео: MPEG-4 AVC, 1280x534 (2.40:1), 23.976 fps, 6074 Kbps, 0.371 bit/pixel
Аудио 1: 48 kHz, AC3, 5.1, 384 Kbps | iTunes | RUS |
Аудио 2: 48 kHz, AC3, 5.1, 640 Kbps | Оригинал | ENG |
Субтитры: Aнглийские
General
Unique ID : 206052558275030938962489547068664819516 (0x9B04477A4D9A860B926555596AA1AF3C)
Complete name : F:Hard.Kill.2020.BDRip.720p.ExKinoRay.mkv
Format : Matroska
Format version : Version 4
File size : 4.88 GiB
Duration : 1 h 38 min
Overall bit rate : 7 100 kb/s
Movie name : Hard Kill 2020 from ExKinoRay
Encoded date : UTC 2020-09-18 00:37:52
Writing application : mkvmerge v7.3.0 ('Nouages') 64bit built on Oct 22 2014 18:53:34
Writing library : libebml v1.3.0 + libmatroska v1.4.1

Video
ID : 1
Format : AVC
Format/Info : Advanced Video Codec
Format profile : [email protected]
Format settings : CABAC / 12 Ref Frames
Format settings, CABAC : Yes
Format settings, Reference : 12 frames
Codec ID : V_MPEG4/ISO/AVC
Duration : 1 h 38 min
Bit rate : 6 074 kb/s
Width : 1 280 pixels
Height : 534 pixels
Display aspect ratio : 2.40:1
Frame rate mode : Constant
Frame rate : 23.976 (24000/1001) FPS
Color space : YUV
Chroma subsampling : 4:2:0
Bit depth : 8 bits
Scan type : Progressive
Bits/(Pixel*Frame) : 0.371
Stream size : 4.17 GiB (86%)
Title : iFT
Writing library : x264 core 161 r3018+53 ~ Encoded by Mocunaman in Portugal
Encoding settings : cabac=1 / ref=12 / deblock=1:-3:-3 / analyse=0x3:0x113 / me=umh / subme=10 / psy=1 / fade_compensate=0.00 / psy_rd=1.00:0.00 / mixed_ref=1 / me_range=32 / chroma_me=1 / trellis=2 / 8x8dct=1 / cqm=0 / deadzone=21,11 / fast_pskip=0 / chroma_qp_offset=-2 / threads=17 / lookahead_threads=2 / sliced_threads=0 / nr=0 / decimate=0 / interlaced=0 / bluray_compat=0 / constrained_intra=0 / fgo=0 / bframes=8 / b_pyramid=2 / b_adapt=2 / b_bias=0 / direct=3 / weightb=1 / open_gop=0 / weightp=2 / keyint=250 / keyint_min=23 / scenecut=40 / intra_refresh=0 / rc_lookahead=60 / rc=crf / mbtree=0 / crf=16.3000 / qcomp=0.65 / qpmin=0:0:0 / qpmax=69:69:69 / qpstep=4 / vbv_maxrate=62500 / vbv_bufsize=78125 / crf_max=0.0 / nal_hrd=none / filler=0 / ip_ratio=1.30 / pb_ratio=1.20 / aq=3:0.85 / aq-sensitivity=10.00 / aq-factor=1.00:1.00:1.00 / aq2=0 / aq3=0 / zones=0,2928,crf=16.9,aq-strength=0.70/3048,5400,crf=16.3/16239,22694,crf=16.3/49423,49492,crf=15.8/60381,71704,crf=15.8/77621,86234,crf=15.8/93370,107410,crf=15.8/113501,114226,crf=16.3
Language : English
Default : Yes
Forced : No
Color range : Limited
Color primaries : BT.709
Transfer characteristics : BT.709
Matrix coefficients : BT.709

Audio #1
ID : 2
Format : AC-3
Format/Info : Audio Coding 3
Commercial name : Dolby Digital
Codec ID : A_AC3
Duration : 1 h 38 min
Bit rate mode : Constant
Bit rate : 384 kb/s
Channel(s) : 6 channels
Channel layout : L R C LFE Ls Rs
Sampling rate : 48.0 kHz
Frame rate : 31.250 FPS (1536 SPF)
Compression mode : Lossy
Stream size : 270 MiB (5%)
Title : Dub (iTunes)
Language : Russian
Service kind : Complete Main
Default : Yes
Forced : No

Audio #2
ID : 3
Format : AC-3
Format/Info : Audio Coding 3
Commercial name : Dolby Digital
Codec ID : A_AC3
Duration : 1 h 38 min
Bit rate mode : Constant
Bit rate : 640 kb/s
Channel(s) : 6 channels
Channel layout : L R C LFE Ls Rs
Sampling rate : 48.0 kHz
Frame rate : 31.250 FPS (1536 SPF)
Compression mode : Lossy
Stream size : 450 MiB (9%)
Title : Original
Language : English
Service kind : Complete Main
Default : No
Forced : No

Text #1
ID : 4
Format : UTF-8
Codec ID : S_TEXT/UTF8
Codec ID/Info : UTF-8 Plain Text
Duration : 1 h 30 min
Bit rate : 39 b/s
Count of elements : 1009
Stream size : 26.5 KiB (0%)
Title : Full
Language : English
Default : No
Forced : No

Text #2
ID : 5
Format : UTF-8
Codec ID : S_TEXT/UTF8
Codec ID/Info : UTF-8 Plain Text
Duration : 1 h 30 min
Bit rate : 44 b/s
Count of elements : 1138
Stream size : 29.5 KiB (0%)
Title : SDH
Language : English
Default : No
Forced : No

Menu
00:00:00.000 : en:Chapter 01
00:16:13.597 : en:Chapter 02
00:34:51.964 : en:Chapter 03
00:53:57.776 : en:Chapter 04
01:09:15.025 : en:Chapter 05
01:30:02.522 : en:Chapter 06



Релиз от:

Автор релиза:

Download
Для скачивания .torrent файлов необходима регистрация
Сайт не распространяет и не хранит электронные версии произведений, а лишь предоставляет доступ к создаваемому пользователями каталогу ссылок на торрент-файлы, которые содержат только списки хеш-сумм

Страница 1 из 1

Ответить на тему

   Похожие торренты   Торрент 




tracker_crontracker_cron