Регистрация ·  Логин: Пароль: Запомнить   · Забыли пароль?




Ответить на тему
Статистика раздачи
Размер: 3.94 ГБ | Зарегистрирован: 13 окт 2020, 16:14 | .torrent скачан: 0 раз(а), DHT: [ 15794 ] раз(а)
Сидеров: [ 344  | 0 байт/сек ]   Личеров: [ 8  | 0 байт/сек ]   DHT: [ 344 / 8 ]
Автор Сообщение

Модератор

С нами: 2 года 4 месяца
Сообщения: 3361
Россия

Сообщение 13 окт 2020, 16:14 

[Цитировать]


Информация о фильме
Название: Поезд в Пусан 2: Полуостров
Оригинальное название: Bando / Train to Busan 2
Год выхода: 2020
Жанр: Ужасы, триллер, боевик
Режиссер: Сан Хо Ён
В ролях: Дон Вон Кан, Чон Хён Ли, Рэ Ли, Хэ Хё Квон, Мин Чжэ Ким (I), Гё Хван Ку, До Юн Ким, Ё Вон Ли, Гю Бэк Ким, У Чжин Мун, Со Ён Чан, Си Вон Чха, Тхэ Джун Ким, Ён Гён Юн, Мин Сон Ким, Се Джун Пак, Хи Чхоль Син, Дэниэл Джои Олбрайт



О фильме: Через четыре года после вспышки страшного вируса, распространение которого Южная Корея сдержать не смогла, то, что осталось от страны, находится в блокаде, а полчища зомби разгуливают по всему полуострову. Бывший военный в составе спецотряда отправляется в закрытую зону, чтобы отыскать припрятанные деньги, и теперь ему предстоит пробираться по жуткому миру, где помимо означенной угрозы опасность представляют и люди, устраивающие жестокие игры на выживание.

Страна: Корея Южная
Студия: Movic Comics, Next Entertainment World, RedPeter Film
Продолжительность: 01:55:35
Перевод: Дублированный | iTunes

Качество: WEB-DL 1080p
Видео: MPEG-4 AVC, 1920x804, 4490 Kbit/s, 24.000 fps
Аудио: 48 kHz, AC3, 5.1, 384 Kbps | iTunes | RUS |
Субтитры: Русские (Full)



General
Unique ID : 260103198077841159091540943552370098468 (0xC3AE0DC495C623F637C4AC78717AC124)
Complete name : D:Video111Train.to.Busan.2.2020.WEB-DL.1080p.seleZen.mkv
Format : Matroska
Format version : Version 4
File size : 3.94 GiB
Duration : 1 h 55 min
Overall bit rate : 4 876 kb/s
Movie name : Train to Busan 2 2020 from селезень
Encoded date : UTC 2020-09-17 00:48:42
Writing application : mkvmerge v40.0.0 ('Old Town Road + Pony') 64-bit
Writing library : libebml v1.3.9 + libmatroska v1.5.2

Video
ID : 1
Format : AVC
Format/Info : Advanced Video Codec
Format profile : [email protected]
Format settings : CABAC / 5 Ref Frames
Format settings, CABAC : Yes
Format settings, Reference : 5 frames
Codec ID : V_MPEG4/ISO/AVC
Duration : 1 h 55 min
Bit rate : 4 490 kb/s
Width : 1 920 pixels
Height : 804 pixels
Display aspect ratio : 2.40:1
Frame rate mode : Constant
Frame rate : 24.000 FPS
Color space : YUV
Chroma subsampling : 4:2:0
Bit depth : 8 bits
Scan type : Progressive
Bits/(Pixel*Frame) : 0.121
Stream size : 3.62 GiB (92%)
Language : English
Default : Yes
Forced : No
Color range : Limited
Color primaries : BT.709
Transfer characteristics : BT.709
Matrix coefficients : BT.709

Audio
ID : 2
Format : AC-3
Format/Info : Audio Coding 3
Commercial name : Dolby Digital
Codec ID : A_AC3
Duration : 1 h 55 min
Bit rate mode : Constant
Bit rate : 384 kb/s
Channel(s) : 6 channels
Channel layout : L R C LFE Ls Rs
Sampling rate : 48.0 kHz
Frame rate : 31.250 FPS (1536 SPF)
Compression mode : Lossy
Stream size : 317 MiB (8%)
Title : iTunes
Language : Russian
Service kind : Complete Main
Default : Yes
Forced : Yes

Text
ID : 3
Format : UTF-8
Codec ID : S_TEXT/UTF8
Codec ID/Info : UTF-8 Plain Text
Duration : 1 h 50 min
Bit rate : 48 b/s
Count of elements : 943
Stream size : 39.3 KiB (0%)
Title : Full
Language : Russian
Default : No
Forced : No

Menu
00:00:00.000 : en:Глава 1
00:09:01.041 : en:Глава 2
00:16:25.249 : en:Глава 3
00:23:38.374 : en:Глава 4
00:30:07.624 : en:Глава 5
00:36:27.874 : en:Глава 6
00:41:59.499 : en:Глава 7
00:48:46.082 : en:Глава 8
00:56:14.415 : en:Глава 9
01:03:23.956 : en:Глава 10
01:09:32.164 : en:Глава 11
01:15:52.914 : en:Глава 12
01:23:05.247 : en:Глава 13
01:31:20.080 : en:Глава 14
01:37:15.996 : en:Глава 15
01:44:09.162 : en:Глава 16


Релиз: Присоединяйся к:


Download
Для скачивания .torrent файлов необходима регистрация
Сайт не распространяет и не хранит электронные версии произведений, а лишь предоставляет доступ к создаваемому пользователями каталогу ссылок на торрент-файлы, которые содержат только списки хеш-сумм

Страница 1 из 1

Ответить на тему

   Похожие торренты   Торрент 




tracker_crontracker_cron