Регистрация ·  Логин: Пароль: Запомнить   · Забыли пароль?




Ответить на тему
Статистика раздачи
Размер: 749.76 МБ | Зарегистрирован: 13 окт 2020, 16:14 | .torrent скачан: 0 раз(а), DHT: [ 0 ] раз(а)
Сидеров: [ 0  | 0 байт/сек ]   Личеров: [ 0  | 0 байт/сек ]   DHT: [ 0 / 0 ]
Автор Сообщение

Модератор

С нами: 2 года 4 месяца
Сообщения: 3361
Россия

Сообщение 13 окт 2020, 16:14 

[Цитировать]

Няня. Королева проклятых / Няня: Королева убийц / The Babysitter: Killer Queen

Информация о фильме:
Название: Няня. Королева проклятых / Няня: Королева убийц
Оригинальное название: The Babysitter: Killer Queen
Год выхода: 2020
Жанр: Ужасы, комедия
Режиссер: МакДжи
В ролях: Джуда Льюис, Белла Торн, Самара Уивинг, Лесли Бибб, Кен Марино, Эмили Элин Линд, Робби Амелл, Дженна Ортега, Хана Мэй Ли, Аманда Серни, Эндрю Бэчелор
Описание: Через два года после победы Коула над сатанинским культом, который возглавляла его няня Би, парень пытается забыть произошедшее и сосредоточиться на выживании в старшей школе. Но когда старые враги неожиданно возвращаются, Коулу придётся снова противостоять силам зла.

Страна: США
Студия: Boies / Schiller Film Group, Wonderland Sound and Vision
Продолжительность: 01:42:26
Перевод: Профессиональный (многоголосый, закадровый) - HDRezka Studio

Информация о файле:
Кодек: AVC
Формат: MKV
Качество: WEB-DLRip-AVC
Видео: MPEG-4 AVC, 720x302 (2.40:1), 24.000 fps, 929 kbps, 0.178
Аудио RU: AAC-HE, 2 ch, 48 kHz, 96 kbps | uncensored
Субтитры: Русские (Forced, full), английские

Трейлер


x264 info: frame I:1799 Avg QP:14.37 size: 35511
x264 info: frame P:33413 Avg QP:17.95 size: 9801
x264 info: frame B:112304 Avg QP:20.16 size: 2844
x264 info: consecutive B-frames: 2.9% 3.0% 10.1% 21.8% 19.2% 35.5% 3.3% 0.8% 0.8% 0.5% 0.3% 1.7%
-==========================-
General
Unique ID : 270312413457716215485725429808071337121 (0xCB5C46F2C380FB1282D2F16CF06664A1)
Complete name : D:uTorrentРипы_от_wolf1245_MediaBitThe Babysitter Killer Queen 2020.WEB-DLRip-AVC_wolf1245 & MediaBit.mkv
Format : Matroska
Format version : Version 4
File size : 750 MiB
Duration : 1 h 42 min
Overall bit rate : 1 023 kb/s
Movie name : The Babysitter Killer Queen 2020.WEB-DLRip-AVC_wolf1245 & MediaBit
Encoded date : UTC 2020-09-15 15:35:42
Writing application : mkvmerge v50.0.0 ('Awakenings') 64-bit
Writing library : libebml v1.4.0 + libmatroska v1.6.2
Video
ID : 1
Format : AVC
Format/Info : Advanced Video Codec
Format profile : [email protected]
Format settings : CABAC / 11 Ref Frames
Format settings, CABAC : Yes
Format settings, Reference frames : 11 frames
Codec ID : V_MPEG4/ISO/AVC
Duration : 1 h 42 min
Bit rate : 929 kb/s
Width : 720 pixels
Height : 302 pixels
Display aspect ratio : 2.40:1
Frame rate mode : Constant
Frame rate : 24.000 FPS
Color space : YUV
Chroma subsampling : 4:2:0
Bit depth : 8 bits
Scan type : Progressive
Bits/(Pixel*Frame) : 0.178
Stream size : 678 MiB (90%)
Title : wolf1245 & MediaBit
Writing library : x264 core 157 r2958 57baac4
Encoding settings : cabac=1 / ref=11 / deblock=1:-3:-3 / analyse=0x3:0x133 / me=umh / subme=11 / psy=1 / psy_rd=0.98:0.07 / mixed_ref=1 / me_range=48 / chroma_me=1 / trellis=2 / 8x8dct=1 / cqm=0 / deadzone=21,11 / fast_pskip=0 / chroma_qp_offset=-3 / threads=10 / lookahead_threads=2 / sliced_threads=0 / nr=0 / decimate=0 / interlaced=0 / bluray_compat=0 / constrained_intra=0 / bframes=11 / b_pyramid=2 / b_adapt=2 / b_bias=0 / direct=3 / weightb=1 / open_gop=0 / weightp=2 / keyint=240 / keyint_min=24 / scenecut=40 / intra_refresh=0 / rc_lookahead=60 / rc=2pass / mbtree=0 / bitrate=929 / ratetol=1.0 / qcomp=0.60 / qpmin=0 / qpmax=69 / qpstep=4 / cplxblur=20.0 / qblur=0.5 / vbv_maxrate=50000 / vbv_bufsize=62500 / nal_hrd=none / filler=0 / ip_ratio=1.40 / pb_ratio=1.30 / aq=1:1.00
Language : English
Default : Yes
Forced : No
Audio
ID : 2
Format : AAC LC SBR
Format/Info : Advanced Audio Codec Low Complexity with Spectral Band Replication
Commercial name : HE-AAC
Format settings : Implicit
Codec ID : A_AAC-2
Duration : 1 h 42 min
Bit rate : 96.0 kb/s
Channel(s) : 2 channels
Channel layout : L R
Sampling rate : 48.0 kHz
Frame rate : 23.438 FPS (2048 SPF)
Compression mode : Lossy
Stream size : 70.3 MiB (9%)
Title : MVO MVO | HDRezka Studio | uncensored
Language : Russian
Default : Yes
Forced : No
Text #1
ID : 3
Format : UTF-8
Codec ID : S_TEXT/UTF8
Codec ID/Info : UTF-8 Plain Text
Duration : 1 h 21 min
Bit rate : 3 b/s
Count of elements : 47
Stream size : 1.83 KiB (0%)
Title : Forced
Language : Russian
Default : No
Forced : No
Text #2
ID : 4
Format : UTF-8
Codec ID : S_TEXT/UTF8
Codec ID/Info : UTF-8 Plain Text
Duration : 1 h 40 min
Bit rate : 99 b/s
Count of elements : 1400
Stream size : 72.8 KiB (0%)
Title : Full
Language : Russian
Default : No
Forced : No
Text #3
ID : 5
Format : UTF-8
Codec ID : S_TEXT/UTF8
Codec ID/Info : UTF-8 Plain Text
Duration : 1 h 40 min
Bit rate : 83 b/s
Count of elements : 1839
Stream size : 60.9 KiB (0%)
Title : English [CC]
Language : English
Default : No
Forced : No

Релиз от: &

Download
Для скачивания .torrent файлов необходима регистрация
Сайт не распространяет и не хранит электронные версии произведений, а лишь предоставляет доступ к создаваемому пользователями каталогу ссылок на торрент-файлы, которые содержат только списки хеш-сумм

Страница 1 из 1

Ответить на тему

   Похожие торренты   Торрент 




tracker_crontracker_cron