Регистрация ·  Логин: Пароль: Запомнить   · Забыли пароль?




Ответить на тему
Статистика раздачи
Размер: 3.1 ГБ | Зарегистрирован: 13 окт 2020, 16:11 | .torrent скачан: 0 раз(а), DHT: [ 2917 ] раз(а)
Сидеров: [ 47  | 0 байт/сек ]   Личеров: [ 3  | 0 байт/сек ]   DHT: [ 47 / 3 ]
Автор Сообщение

Модератор

С нами: 2 года 5 месяцев
Сообщения: 3401
Россия

Сообщение 13 окт 2020, 16:11 

[Цитировать]



Название: Бесшумный
Оригинальное название: The Silencing
Год выхода: 2020
Жанр: Триллер, боевик, криминал
Режиссер: Робин Пронт
В ролях: Николай Костер-Валдау, Аннабелль Уоллис, Зан Маккларнон, Мелани Скрофано, Хиро Файнс-Тиффин, Джош Круддас, Даниэль Райан, Даина Барбо, Шон Смит

О фильме: Бывший охотник Рэйберн Свонсон, чья единственная дочь была похищена пять лет назад, долгое время пытался избавиться от душевной боли с помощью алкоголя. Отказавшись от охоты и, наконец-то, взяв свою жизнь под контроль, Рэйберн решает помогать животным, после чего открывает природный заповедник в дикой местности. Однажды, случайно увидев мужчину, облаченного в маскировочный костюм, Свонсон осознает, что неизвестный преследует девушку, которая очень похожа на его похищенную дочь. Решив спасти беглянку, экс-охотник отправляется в рискованную погоню, надеясь успеть добраться до девушки раньше предполагаемого убийцы...



Страна: США, Канада
Студия: Anova Pictures, Madrona Drive, Silencing Canada Productions, Wildling Pictures
Продолжительность: 01:34:31
Перевод: Профессиональный многоголосый (HDRezka Studio)
Формат: MKV
Качество: BDRip 720p
Видео: MPEG-4 AVC, 1280x534 (2.35:1), 3708 kbps, 23.976 fps
Аудио 1: 48 kHz, AC3, 5.1, 448 Kbps | MVO | RUS |
Аудио 2: 48 kHz, AC3, 5.1, 448 Kbps | Оригинал | ENG |
Субтитры: Русские (форс., полные), английские
x264 [info]: frame I:873 Avg QP:14.07 size: 94452
x264 [info]: frame P:27844 Avg QP:16.07 size: 41225
x264 [info]: frame B:107268 Avg QP:17.62 size: 13641
------------------------------------------------
General
Unique ID : 238566687423393417718620638074540206997 (0xB37A45CFF13D403693F58C46BD252B95)
Complete name : F:The.Silencing.2020.BDRip.720p.ExKinoRay.mkv
Format : Matroska
Format version : Version 2
File size : 3.10 GiB
Duration : 1 h 34 min
Overall bit rate : 4 698 kb/s
Movie name : The Silencing (2020) from ExKinoRay
Encoded date : UTC 2020-09-27 14:01:27
Writing application : mkvmerge v5.6.0 ('Kenya Kane') built on May 27 2012 16:44:04
Writing library : libebml v1.2.3 + libmatroska v1.3.0
Attachments : poster.jpg

Video
ID : 1
Format : AVC
Format/Info : Advanced Video Codec
Format profile : [email protected]
Format settings, CABAC : Yes
Format settings, ReFrames : 12 frames
Codec ID : V_MPEG4/ISO/AVC
Duration : 1 h 34 min
Bit rate : 3 708 kb/s
Width : 1 280 pixels
Height : 534 pixels
Display aspect ratio : 2.40:1
Frame rate mode : Constant
Frame rate : 23.976 (23976/1000) FPS
Color space : YUV
Chroma subsampling : 4:2:0
Bit depth : 8 bits
Scan type : Progressive
Bits/(Pixel*Frame) : 0.226
Stream size : 2.45 GiB (79%)
Title : Enigma
Writing library : x264 core 152 r2851 ba24899
Encoding settings : cabac=1 / ref=12 / deblock=1:-2:-2 / analyse=0x3:0x113 / me=umh / subme=11 / psy=1 / psy_rd=1.04:0.08 / mixed_ref=1 / me_range=32 / chroma_me=1 / trellis=2 / 8x8dct=1 / cqm=0 / deadzone=21,11 / fast_pskip=0 / chroma_qp_offset=-3 / threads=12 / lookahead_threads=3 / sliced_threads=0 / nr=0 / decimate=0 / interlaced=0 / bluray_compat=0 / constrained_intra=0 / bframes=12 / b_pyramid=2 / b_adapt=2 / b_bias=0 / direct=1 / weightb=1 / open_gop=0 / weightp=2 / keyint=240 / keyint_min=23 / scenecut=40 / intra_refresh=0 / rc=crf / mbtree=0 / crf=18.0 / qcomp=0.60 / qpmin=0 / qpmax=51 / qpstep=4 / ip_ratio=1.40 / pb_ratio=1.30 / aq=3:0.90
Language : English
Default : Yes
Forced : No
Color range : Limited
Color primaries : BT.709
Transfer characteristics : BT.709
Matrix coefficients : BT.709

Audio #1
ID : 2
Format : AC-3
Format/Info : Audio Coding 3
Mode extension : CM (complete main)
Format settings, Endianness : Big
Codec ID : A_AC3
Duration : 1 h 34 min
Bit rate mode : Constant
Bit rate : 448 kb/s
Channel(s) : 6 channels
Channel positions : Front: L C R, Side: L R, LFE
Sampling rate : 48.0 kHz
Frame rate : 31.250 FPS (1536 spf)
Compression mode : Lossy
Stream size : 303 MiB (10%)
Title : MVO [HDRezka Studio]
Language : Russian
Default : Yes
Forced : Yes

Audio #2
ID : 3
Format : AC-3
Format/Info : Audio Coding 3
Mode extension : CM (complete main)
Format settings, Endianness : Big
Codec ID : A_AC3
Duration : 1 h 34 min
Bit rate mode : Constant
Bit rate : 448 kb/s
Channel(s) : 6 channels
Channel positions : Front: L C R, Side: L R, LFE
Sampling rate : 48.0 kHz
Frame rate : 31.250 FPS (1536 spf)
Compression mode : Lossy
Stream size : 303 MiB (10%)
Title : Original
Language : English
Default : No
Forced : No

Text #1
ID : 4
Format : UTF-8
Codec ID : S_TEXT/UTF8
Codec ID/Info : UTF-8 Plain Text
Title : Forced
Language : Russian
Default : Yes
Forced : Yes

Text #2
ID : 5
Format : UTF-8
Codec ID : S_TEXT/UTF8
Codec ID/Info : UTF-8 Plain Text
Title : Full
Language : Russian
Default : No
Forced : No

Text #3
ID : 6
Format : UTF-8
Codec ID : S_TEXT/UTF8
Codec ID/Info : UTF-8 Plain Text
Title : Full
Language : English
Default : No
Forced : No

Text #4
ID : 7
Format : UTF-8
Codec ID : S_TEXT/UTF8
Codec ID/Info : UTF-8 Plain Text
Title : SDH
Language : English
Default : No
Forced : No

Menu
00:00:00.000 : en:Chapter 1
00:04:47.454 : en:Chapter 2
00:09:15.722 : en:Chapter 3
00:12:39.801 : en:Chapter 4
00:17:16.410 : en:Chapter 5
00:22:32.476 : en:Chapter 6
00:28:47.059 : en:Chapter 7
00:34:04.251 : en:Chapter 8
00:41:10.760 : en:Chapter 9
00:47:53.245 : en:Chapter 10
00:54:38.859 : en:Chapter 11
00:59:10.380 : en:Chapter 12
01:05:07.612 : en:Chapter 13
01:10:54.959 : en:Chapter 14
01:17:58.090 : en:Chapter 15
01:26:57.712 : en:Chapter 16



Релиз от:

Автор релиза:


Download
Для скачивания .torrent файлов необходима регистрация
Сайт не распространяет и не хранит электронные версии произведений, а лишь предоставляет доступ к создаваемому пользователями каталогу ссылок на торрент-файлы, которые содержат только списки хеш-сумм

Страница 1 из 1

Ответить на тему

   Похожие торренты   Торрент