Регистрация ·  Логин: Пароль: Запомнить   · Забыли пароль?




Ответить на тему
Статистика раздачи
Размер: 1.42 ГБ | Зарегистрирован: 13 окт 2020, 16:11 | .torrent скачан: 1 раз(а), DHT: [ 969 ] раз(а)
Сидеров: [ 17  | 0 байт/сек ]   Личеров: [ 2  | 0 байт/сек ]   DHT: [ 17 / 2 ]
Автор Сообщение

Модератор

С нами: 2 года 4 месяца
Сообщения: 3361
Россия

Сообщение 13 окт 2020, 16:11 

[Цитировать]

Тайное общество младших монарших особ / Secret Society of Second-Born Royals

Информация о фильме:
Название: Тайное общество младших монарших особ
Оригинальное название: Secret Society of Second-Born Royals
Год выхода: 2020
Жанр: Фэнтези, боевик, комедия, приключения, семейный
Режиссер: Анна Мастро
В ролях: Элоди Юнг, Скайлар Эстин, Грег Брайк, Джули Нольк, Пейтон Элизабет Ли, Алли Чунг, Изабелла Блейк Томас, Оливия Дибл, Нилс Фитч, Эшли Лиао
Описание: Фильм повествует о приключениях принцессы Сэм, являющейся второй в очереди на трон сказочного королевства Иллирия. Принцесса обнаруживает у себя сверхспособности и оказывается членом тайного общества королевской семьи. Под руководством своего инструктора, Сэм и новый класс новобранцев-принцев и принцесс должны научиться использовать свои силы в секретном тренировочном лагере прежде, чем приступят к выполнению своего главного задания - защите своих королевств.

Страна: США
Студия: Disney Channel, Disney+
Продолжительность: 01:37:04
Перевод: Любительский (многоголосый, закадровый) - @[email protected]

Информация о файле:
Кодек: AVC
Формат: MKV
Качество: WEB-DLRip-AVC
Видео: MPEG-4 AVC, 1024x512 (2.000), 1 900 kb/s, 23.976 fps, 0.151
Аудио RU: AC3, 2 ch, 48 kHz, 192 kbps
Субтитры: Английские


x264 info: frame I:1487 Avg QP:15.13 size: 74992
x264 info: frame P:36912 Avg QP:18.68 size: 19908
x264 info: frame B:101206 Avg QP:20.66 size: 5294
x264 info: consecutive B-frames: 3.7% 4.1% 11.0% 53.6% 10.4% 10.9% 2.5% 2.2% 0.3% 0.2% 0.2% 0.8%
==========================================================
General
Unique ID : 233606069943899803672879260693475794697 (0xAFBEE47CD12C778B10FEDC6824F69F09)
Complete name : D:uTorrentРипы_от_wolf1245_MediaBitSecret Society of Second-Born Royals (2020) wolf1245 & MediaBit.mkv
Format : Matroska
Format version : Version 4
File size : 1.42 GiB
Duration : 1 h 37 min
Overall bit rate : 2 093 kb/s
Movie name : Secret Society of Second-Born Royals (2020) from wolf1245 & MediaBit
Encoded date : UTC 2020-09-27 09:08:14
Writing application : mkvmerge v50.0.0 ('Awakenings') 64-bit
Writing library : libebml v1.4.0 + libmatroska v1.6.2
Video
ID : 1
Format : AVC
Format/Info : Advanced Video Codec
Format profile : [email protected]
Format settings : CABAC / 11 Ref Frames
Format settings, CABAC : Yes
Format settings, Reference frames : 11 frames
Codec ID : V_MPEG4/ISO/AVC
Duration : 1 h 37 min
Bit rate : 1 900 kb/s
Width : 1 024 pixels
Height : 512 pixels
Display aspect ratio : 2.000
Frame rate mode : Constant
Frame rate : 23.976 (24000/1001) FPS
Color space : YUV
Chroma subsampling : 4:2:0
Bit depth : 8 bits
Scan type : Progressive
Bits/(Pixel*Frame) : 0.151
Stream size : 1.29 GiB (91%)
Title : wolf1245 & MediaBit
Writing library : x264 core 157 r2958 57baac4
Encoding settings : cabac=1 / ref=11 / deblock=1:-3:-3 / analyse=0x3:0x133 / me=umh / subme=11 / psy=1 / psy_rd=1.03:0.08 / mixed_ref=1 / me_range=48 / chroma_me=1 / trellis=2 / 8x8dct=1 / cqm=0 / deadzone=21,11 / fast_pskip=0 / chroma_qp_offset=-3 / threads=10 / lookahead_threads=2 / sliced_threads=0 / nr=0 / decimate=0 / interlaced=0 / bluray_compat=0 / constrained_intra=0 / bframes=11 / b_pyramid=2 / b_adapt=2 / b_bias=0 / direct=3 / weightb=1 / open_gop=0 / weightp=2 / keyint=240 / keyint_min=24 / scenecut=40 / intra_refresh=0 / rc_lookahead=57 / rc=2pass / mbtree=0 / bitrate=1900 / ratetol=1.0 / qcomp=0.60 / qpmin=0 / qpmax=69 / qpstep=4 / cplxblur=20.0 / qblur=0.5 / vbv_maxrate=50000 / vbv_bufsize=62500 / nal_hrd=none / filler=0 / ip_ratio=1.40 / pb_ratio=1.30 / aq=2:0.90
Language : English
Default : Yes
Forced : No
Color range : Limited
Color primaries : BT.709
Transfer characteristics : BT.709
Matrix coefficients : BT.709
Audio
ID : 2
Format : AC-3
Format/Info : Audio Coding 3
Commercial name : Dolby Digital
Codec ID : A_AC3
Duration : 1 h 37 min
Bit rate mode : Constant
Bit rate : 192 kb/s
Channel(s) : 2 channels
Channel layout : L R
Sampling rate : 48.0 kHz
Frame rate : 31.250 FPS (1536 SPF)
Compression mode : Lossy
Stream size : 133 MiB (9%)
Title : MVO [@[email protected]] MediaBit
Language : Russian
Service kind : Complete Main
Default : Yes
Forced : No
Text #1
ID : 3
Format : UTF-8
Codec ID : S_TEXT/UTF8
Codec ID/Info : UTF-8 Plain Text
Duration : 1 h 36 min
Bit rate : 73 b/s
Count of elements : 1571
Stream size : 52.2 KiB (0%)
Title : English [SDH]
Language : English
Default : No
Forced : No
Text #2
ID : 4
Format : UTF-8
Codec ID : S_TEXT/UTF8
Codec ID/Info : UTF-8 Plain Text
Duration : 1 h 36 min
Bit rate : 64 b/s
Count of elements : 1356
Stream size : 45.7 KiB (0%)
Title : English
Language : English
Default : No
Forced : No

Релиз от: & &

Download
Для скачивания .torrent файлов необходима регистрация
Сайт не распространяет и не хранит электронные версии произведений, а лишь предоставляет доступ к создаваемому пользователями каталогу ссылок на торрент-файлы, которые содержат только списки хеш-сумм

Страница 1 из 1

Ответить на тему

   Похожие торренты   Торрент 




tracker_crontracker_cron