Регистрация ·  Логин: Пароль: Запомнить   · Забыли пароль?




Ответить на тему
Статистика раздачи
Размер: 1.41 ГБ | Зарегистрирован: 13 окт 2020, 16:11 | .torrent скачан: 0 раз(а), DHT: [ 0 ] раз(а)
Сидеров: [ 0  | 0 байт/сек ]   Личеров: [ 0  | 0 байт/сек ]   DHT: [ 0 / 0 ]
Автор Сообщение

Модератор

С нами: 2 года 4 месяца
Сообщения: 3361
Россия

Сообщение 13 окт 2020, 16:11 

[Цитировать]


Название: Глубокое синее море 3
Оригинальное название: Deep Blue Sea 3
Год выхода: 2020
Жанр: Ужасы, фантастика, боевик
Режиссер: Джон Пог
В ролях: Таня Рэймонд, Натаниэль Бузолич, Эмерсон Брукс, Брен Фостер, Рэина Аой, Алекс Бхат, Эрнест Ст. Клэр, Сия Майола, Девилль Ванник

О фильме: Эмма Коллинз – морской биолог, изучающая жизнь белых акул. Она искренне восхищается этими хищниками и пытается понять, не грозит ли глобальное потепление вымиранию этого вида. Героиня возглавляет исследовательскую группу, расположившую свою лабораторию на маленьком острове. Однажды к ним прибывает Ричард Лоуэлл со своими людьми. Они давно выслеживают опасных бычьих акул, которые недавно были замечены в данной местности. Хищники уже успели оставить после себя кровавый след, и Ричард просит Эмму помочь найти их как можно быстрее.



Выпущено: США / Roserock Films
Продолжительность: 01:40:10
Озвучивание: Дублированное | iTunes

Формат: MKV
Качество: BDRip-AVC
Видео: MPEG-4 AVC, 720x300 (2.40:1), 23.976 fps, 1628 Kbps, 0.314 bit/pixel
Аудио : 48 kHz, AC3, 5.1, 384 Kbps | RUS |
Субтитры: Русские (Forced, Full), английские
General
Unique ID : 185946587185651515523619883959974848659 (0x8BE4029170C42FDEA63DCD340C6F6893)
Complete name : F:Deep.Blue.Sea.3.2020.BDRip.AVC.ExKinoRay.mkv
Format : Matroska
Format version : Version 2
File size : 1.41 GiB
Duration : 1 h 40 min
Overall bit rate : 2 010 kb/s
Movie name : Deep Blue Sea 3 2020 from ExKinoRay
Encoded date : UTC 2020-09-27 01:59:18
Writing application : mkvmerge v5.6.0 ('Kenya Kane') built on May 27 2012 16:44:04
Writing library : libebml v1.2.3 + libmatroska v1.3.0

Video
ID : 1
Format : AVC
Format/Info : Advanced Video Codec
Format profile : [email protected]
Format settings, CABAC : Yes
Format settings, ReFrames : 11 frames
Codec ID : V_MPEG4/ISO/AVC
Duration : 1 h 40 min
Bit rate : 1 628 kb/s
Width : 720 pixels
Height : 300 pixels
Display aspect ratio : 2.40:1
Frame rate mode : Constant
Frame rate : 23.976 (23976/1000) FPS
Color space : YUV
Chroma subsampling : 4:2:0
Bit depth : 8 bits
Scan type : Progressive
Bits/(Pixel*Frame) : 0.314
Stream size : 1.11 GiB (79%)
Title : Enigma
Writing library : x264 core 152 r2851 ba24899
Encoding settings : cabac=1 / ref=11 / deblock=1:-2:-2 / analyse=0x3:0x113 / me=umh / subme=10 / psy=1 / psy_rd=1.03:0.08 / mixed_ref=1 / me_range=32 / chroma_me=1 / trellis=2 / 8x8dct=1 / cqm=0 / deadzone=21,11 / fast_pskip=0 / chroma_qp_offset=-3 / threads=9 / lookahead_threads=2 / sliced_threads=0 / nr=0 / decimate=0 / interlaced=0 / bluray_compat=0 / constrained_intra=0 / bframes=10 / b_pyramid=2 / b_adapt=2 / b_bias=0 / direct=3 / weightb=1 / open_gop=0 / weightp=2 / keyint=240 / keyint_min=23 / scenecut=40 / intra_refresh=0 / rc=2pass / mbtree=0 / bitrate=1628 / ratetol=1.0 / qcomp=0.60 / qpmin=0 / qpmax=51 / qpstep=4 / cplxblur=20.0 / qblur=0.5 / ip_ratio=1.40 / pb_ratio=1.30 / aq=2:0.90
Language : English
Default : Yes
Forced : No
Color range : Limited
Color primaries : BT.709
Transfer characteristics : BT.709
Matrix coefficients : BT.709

Audio
ID : 2
Format : AC-3
Format/Info : Audio Coding 3
Mode extension : CM (complete main)
Format settings, Endianness : Big
Codec ID : A_AC3
Duration : 1 h 40 min
Bit rate mode : Constant
Bit rate : 384 kb/s
Channel(s) : 6 channels
Channel positions : Front: L C R, Side: L R, LFE
Sampling rate : 48.0 kHz
Frame rate : 31.250 FPS (1536 spf)
Compression mode : Lossy
Stream size : 275 MiB (19%)
Title : iTunes
Language : Russian
Default : Yes
Forced : Yes

Text #1
ID : 3
Format : UTF-8
Codec ID : S_TEXT/UTF8
Codec ID/Info : UTF-8 Plain Text
Title : Forced
Language : Russian
Default : Yes
Forced : No

Text #2
ID : 4
Format : UTF-8
Codec ID : S_TEXT/UTF8
Codec ID/Info : UTF-8 Plain Text
Title : Full
Language : Russian
Default : No
Forced : No

Text #3
ID : 5
Format : UTF-8
Codec ID : S_TEXT/UTF8
Codec ID/Info : UTF-8 Plain Text
Language : English
Default : No
Forced : No

Text #4
ID : 6
Format : UTF-8
Codec ID : S_TEXT/UTF8
Codec ID/Info : UTF-8 Plain Text
Title : SDH
Language : English
Default : No
Forced : No

Menu
00:00:00.000 : :Chapter 01
00:09:50.006 : :Chapter 02
00:19:15.154 : :Chapter 03
00:28:50.270 : :Chapter 04
00:38:06.034 : :Chapter 05
00:45:09.290 : :Chapter 06
00:54:28.891 : :Chapter 07
01:04:14.142 : :Chapter 08
01:14:12.406 : :Chapter 09
01:23:10.819 : :Chapter 10
01:32:48.229 : :Chapter 11




Релиз от:

Автор релиза:

Download
Для скачивания .torrent файлов необходима регистрация
Сайт не распространяет и не хранит электронные версии произведений, а лишь предоставляет доступ к создаваемому пользователями каталогу ссылок на торрент-файлы, которые содержат только списки хеш-сумм

Страница 1 из 1

Ответить на тему

   Похожие торренты   Торрент 




tracker_crontracker_cron