Регистрация ·  Логин: Пароль: Запомнить   · Забыли пароль?




Ответить на тему
Статистика раздачи
Размер: 742.3 МБ | Зарегистрирован: 13 окт 2020, 16:10 | .torrent скачан: 0 раз(а), DHT: [ 69 ] раз(а)
Сидеров: [ 14  | 0 байт/сек ]   Личеров: [ 1  | 0 байт/сек ]   DHT: [ 14 / 1 ]
Автор Сообщение

Модератор

С нами: 2 года 4 месяца
Сообщения: 3361
Россия

Сообщение 13 окт 2020, 16:10 

[Цитировать]



Информация о фильме
Название: Фрики: Ты один из нас
Оригинальное название: Freaks: You're One of Us
Год выхода: 2020
Жанр: Фантастика, фэнтези, боевик, драма
Режиссер: Феликс Биндер
В ролях: Корнелия Грёшель, Тим Оливер Шульц, Вотан Вилке Мёринг, Нина Кунцендорф, Фредерик Линкеман, Финнлей Бергер, Гиза Флейк, Ральф Херфорт, Тельма Буабенг, Рита Фельдмайер, Штефан Мерен, Эдди Шор, Ян Фельски, Максимилиан Диле, Йохан Фоль, Даниэль Камен, Франк Штреффинг

О фильме:
Главная героиня – молодая женщина по имени Венди, которая является представителем рабочего класса. Она работает поварихой и никогда не думала, что ее может ждать что-то великое. Тем не менее, в один из дней женщина обнаружила в себе суперспособности. Вскоре она поняла, что они были у нее всегда, просто никак не проявлялись. А причина этому кроется в применении специальных лекарств, которые являются своего рода подавителями способностей. Также Венди узнала о том, что она далеко не единственный одаренный человек в этом мире. Теперь ей предстоит отыскать других и вместе раскрыть всемирный заговор.


Страна: Германия
Студия: Netflix, ZDF
Продолжительность: 01:32:40
Перевод: Любительский многоголосый | Mallorn Studio

Файл
Формат: MKV
Качество: WEBRip-AVC
Видео: MPEG-4 AVC, 704x352, 1047 Кбит/с
Аудио: AAC-HE, 2 ch, 76 Кбит/с
Субтитры: Русские (Forced, Full), английские

Общее
Уникальный идентификатор : 304411105235361014991147711371847099575 (0xE50372409092181A852BDD20321764B7)
Полное имя : D:MOVIESFreaks.Youre.One.of.Us.2020.WEBRip-AVC.ExKinoRay.mkv
Формат : Matroska
Версия формата : Version 4
Размер файла : 742 Мбайт
Продолжительность : 1 ч. 32 м.
Общий поток : 1 120 Кбит/сек
Дата кодирования : UTC 2020-09-26 18:34:24
Программа кодирования : mkvmerge v45.0.0 ('Heaven in Pennies') 64-bit
Библиотека кодирования : libebml v1.3.10 + libmatroska v1.5.2

Видео
Идентификатор : 1
Формат : AVC
Формат/Информация : Advanced Video Codec
Профиль формата : [email protected]
Настройки формата : CABAC / 13 Ref Frames
Параметр CABAC формата : Да
Параметр RefFrames формата : 13 кадров
Идентификатор кодека : V_MPEG4/ISO/AVC
Продолжительность : 1 ч. 32 м.
Битрейт : 1 047 Кбит/сек
Ширина : 704 пикселя
Высота : 352 пикселя
Соотношение сторон : 2,000
Режим частоты кадров : Постоянный
Частота кадров : 25,000 кадров/сек
Цветовое пространство : YUV
Субдискретизация насыщенности : 4:2:0
Битовая глубина : 8 бит
Тип развёртки : Прогрессивная
Бит/(Пиксели*Кадры) : 0.169
Размер потока : 691 Мбайт (93%)
Библиотека кодирования : x264 core 160 r3000 33f9e14
Настройки программы : cabac=1 / ref=13 / deblock=1:-3:-3 / analyse=0x3:0x133 / me=umh / subme=10 / psy=1 / psy_rd=1.05:0.14 / mixed_ref=1 / me_range=32 / chroma_me=1 / trellis=2 / 8x8dct=1 / cqm=0 / deadzone=21,11 / fast_pskip=0 / chroma_qp_offset=-3 / threads=6 / lookahead_threads=1 / sliced_threads=0 / nr=0 / decimate=0 / interlaced=0 / bluray_compat=0 / constrained_intra=0 / bframes=14 / b_pyramid=2 / b_adapt=2 / b_bias=0 / direct=3 / weightb=1 / open_gop=0 / weightp=2 / keyint=250 / keyint_min=25 / scenecut=40 / intra_refresh=0 / rc=2pass / mbtree=0 / bitrate=1047 / ratetol=1.0 / qcomp=0.60 / qpmin=0 / qpmax=69 / qpstep=4 / cplxblur=20.0 / qblur=0.5 / ip_ratio=1.40 / pb_ratio=1.30 / aq=3:1.00
Default : Да
Forced : Нет
Цветовой диапазон : Limited
Основные цвета : BT.709
Характеристики трансфера : BT.709
Коэффициенты матрицы : BT.709

Аудио
Идентификатор : 2
Формат : AAC LC SBR
Формат/Информация : Advanced Audio Codec Low Complexity with Spectral Band Replication
Коммерческое название : HE-AAC
Настройки формата : Explicit
Идентификатор кодека : A_AAC-2
Продолжительность : 1 ч. 32 м.
Битрейт : 76,0 Кбит/сек
Каналы : 2 канала
Channel layout : L R
Частота : 48,0 КГц
Частота кадров : 23,438 кадра/сек (2048 SPF)
Метод сжатия : С потерями
Задержка видео : 31 мс.
Размер потока : 50,4 Мбайт (7%)
Язык : Russian
Default : Да
Forced : Нет

Текст #1
Идентификатор : 3
Формат : UTF-8
Идентификатор кодека : S_TEXT/UTF8
Идентификатор кодека/Информация : UTF-8 Plain Text
Продолжительность : 1 ч. 26 м.
Битрейт : 1 бит/сек
Count of elements : 23
Размер потока : 799 байт (0%)
Заголовок : надписи
Язык : Russian
Default : Да
Forced : Да

Текст #2
Идентификатор : 4
Формат : UTF-8
Идентификатор кодека : S_TEXT/UTF8
Идентификатор кодека/Информация : UTF-8 Plain Text
Продолжительность : 1 ч. 30 м.
Битрейт : 61 бит/сек
Count of elements : 960
Размер потока : 40,8 Кбайт (0%)
Язык : Russian
Default : Нет
Forced : Нет

Текст #3
Идентификатор : 5
Формат : UTF-8
Идентификатор кодека : S_TEXT/UTF8
Идентификатор кодека/Информация : UTF-8 Plain Text
Продолжительность : 1 ч. 31 м.
Битрейт : 51 бит/сек
Count of elements : 1365
Размер потока : 34,6 Кбайт (0%)
Заголовок : SDH
Язык : English
Default : Нет
Forced : Нет



Download
Для скачивания .torrent файлов необходима регистрация
Сайт не распространяет и не хранит электронные версии произведений, а лишь предоставляет доступ к создаваемому пользователями каталогу ссылок на торрент-файлы, которые содержат только списки хеш-сумм

Страница 1 из 1

Ответить на тему

   Похожие торренты   Торрент 




tracker_crontracker_cron