Регистрация ·  Логин: Пароль: Запомнить   · Забыли пароль?




Ответить на тему
Статистика раздачи
Размер: 1.46 ГБ | Зарегистрирован: 13 окт 2020, 16:10 | .torrent скачан: 0 раз(а), DHT: [ 2340 ] раз(а)
Сидеров: [ 257  | 0 байт/сек ]   Личеров: [ 10  | 0 байт/сек ]   DHT: [ 257 / 10 ]
Автор Сообщение

Модератор

С нами: 2 года 4 месяца
Сообщения: 3361
Россия

Сообщение 13 окт 2020, 16:10 

[Цитировать]


Информация о фильме
Название: Тайное общество младших монарших особ
Оригинальное название: Secret Society of Second-Born Royals
Год выхода: 2020
Жанр: Фэнтези, боевик, комедия, приключения, семейный
Режиссер: Анна Мастро
В ролях: Элоди Юнг, Скайлар Эстин, Грег Брайк, Джули Нольк, Пейтон Элизабет Ли, Алли Чунг, Изабелла Блейк Томас, Оливия Дибл, Нилс Фитч, Эшли Лиао

О фильме: Фильм повествует о приключениях принцессы Сэм, являющейся второй в очереди на трон сказочного королевства Иллирия. Принцесса обнаруживает у себя сверхспособности и оказывается членом тайного общества королевской семьи. Под руководством своего инструктора, Сэм и новый класс новобранцев-принцев и принцесс должны научиться использовать свои силы в секретном тренировочном лагере прежде, чем приступят к выполнению своего главного задания - защите своих королевств.



Страна: США
Студия: Disney Channel, Disney+
Продолжительность: 01:37:04
Перевод: Любительский многоголосый | @[email protected]

Файл
Кодек: XviD
Качество: WEB-DLRip
Видео: 1948 Кбит/с, 720x384, 23.976 кадр/с
Звук: AC3, 48 Гц, 192 Кбит/сек, 2 ch (L + R) | MVO | @[email protected]


Общее
Полное имя : D:ТоррентыSecret.Society.of.Second.Born.Royals.2020.XviD.WEB-DLRip-MediaBit.avi
Формат : AVI
Формат/Информация : Audio Video Interleave
Профиль формата : OpenDML
Размер файла : 1,46 Гбайт
Продолжительность : 1 ч. 37 м.
Общий поток : 2 151 Кбит/сек
Название фильма : Secret Society of Second-Born Royals (2020)
Программа кодирования : Lavf58.20.100

Видео
Идентификатор : 0
Формат : MPEG-4 Visual
Профиль формата : Advanced [email protected]
Настройки формата : BVOP1 / Custom Matrix
Параметр BVOP формата : 1
Параметр QPel формата : Нет
Параметр GMC формата : Без точки перехода
Параметр матрицы формата : Выборочная
Идентификатор кодека : XVID
Идентификатор кодека/Подсказка : XviD
Продолжительность : 1 ч. 37 м.
Битрейт : 1 948 Кбит/сек
Ширина : 720 пикселей
Высота : 384 пикселя
Соотношение сторон : 1,909
Частота кадров : 23,976 (24000/1001) кадра/сек
Цветовое пространство : YUV
Субдискретизация насыщенности : 4:2:0
Битовая глубина : 8 бит
Тип развёртки : Прогрессивная
Метод сжатия : С потерями
Бит/(Пиксели*Кадры) : 0.294
Размер потока : 1,32 Гбайт (91%)
Заголовок : MediaBit
Библиотека кодирования : XviD 67

Аудио
Идентификатор : 1
Формат : AC-3
Формат/Информация : Audio Coding 3
Коммерческое название : Dolby Digital
Идентификатор кодека : 2000
Продолжительность : 1 ч. 37 м.
Вид битрейта : Постоянный
Битрейт : 192 Кбит/сек
Каналы : 2 канала
Channel layout : L R
Частота : 48,0 КГц
Частота кадров : 31,250 кадров/сек (1536 SPF)
Битовая глубина : 16 бит
Метод сжатия : С потерями
Размер потока : 133 Мбайт (9%)
Выравнивание : Соединение по промежуткам
Продолжительность промежутка : 32 мс. (0,77 видеокадр)
Заголовок : MVO [@[email protected]] MediaBit
Service kind : Complete Main


Релиз от:

Download
Для скачивания .torrent файлов необходима регистрация
Сайт не распространяет и не хранит электронные версии произведений, а лишь предоставляет доступ к создаваемому пользователями каталогу ссылок на торрент-файлы, которые содержат только списки хеш-сумм

Страница 1 из 1

Ответить на тему

   Похожие торренты   Торрент 




tracker_crontracker_cron