Регистрация ·  Логин: Пароль: Запомнить   · Забыли пароль?




Ответить на тему
Статистика раздачи
Размер: 3.43 ГБ | Зарегистрирован: 13 окт 2020, 16:10 | .torrent скачан: 0 раз(а), DHT: [ 0 ] раз(а)
Сидеров: [ 0  | 0 байт/сек ]   Личеров: [ 0  | 0 байт/сек ]   DHT: [ 0 / 0 ]
Автор Сообщение

Модератор

С нами: 2 года 4 месяца
Сообщения: 3361
Россия

Сообщение 13 окт 2020, 16:10 

[Цитировать]


Информация о фильме
Название: Тайное общество младших монарших особ
Оригинальное название: Secret Society of Second-Born Royals
Год выхода: 2020
Жанр: Фэнтези, боевик, комедия, приключения, семейный
Режиссер: Анна Мастро
В ролях: Элоди Юнг, Скайлар Эстин, Грег Брайк, Джули Нольк, Пейтон Элизабет Ли, Алли Чунг, Изабелла Блейк Томас, Оливия Дибл, Нилс Фитч, Эшли Лиао

О фильме: Фильм повествует о приключениях принцессы Сэм, являющейся второй в очереди на трон сказочного королевства Иллирия. Принцесса обнаруживает у себя сверхспособности и оказывается членом тайного общества королевской семьи. Под руководством своего инструктора, Сэм и новый класс новобранцев-принцев и принцесс должны научиться использовать свои силы в секретном тренировочном лагере прежде, чем приступят к выполнению своего главного задания - защите своих королевств.



Страна: США
Студия: Disney Channel, Disney+
Продолжительность: 01:37:04
Перевод: Любительский многоголосый | @[email protected]

Файл
Кодек: MPEG-4 AVC
Качество: WEB-DL 720p
Видео: 4231 Кбит/с, 1280x720, 23.976 кадр/с
Звук:
Аудио #1: AC3, 48 Гц, 192 Кбит/сек, 2 ch (L + R) | MVO | @[email protected]
Аудио #2: AC3, 48 Гц, 640 Кбит/сек, 6 ch (L C R, + L R, LFE) | Английский
Субтитры: Английские


Общее
Уникальный идентификатор : 159411946812885129378571539508566210788 (0x77ED9FCAA758FD35821A2C6DF478B8E4)
Полное имя : D:ТоррентыSecret.Society.of.Second.Born.Royals.2020.x264.WEB-DL-720p-MediaBit.mkv
Формат : Matroska
Версия формата : Version 4
Размер файла : 3,43 Гбайт
Продолжительность : 1 ч. 37 м.
Режим общего битрейта : Переменный
Общий поток : 5 064 Кбит/сек
Название фильма : Тайное общество младших монарших особ / Secret Society of Second-Born Royals (2020)
Дата кодирования : UTC 2020-09-26 12:18:13
Программа кодирования : mkvmerge v25.0.0 ('Prog Noir') 64-bit
Библиотека кодирования : libebml v1.3.6 + libmatroska v1.4.9

Видео
Идентификатор : 1
Формат : AVC
Формат/Информация : Advanced Video Codec
Профиль формата : [email protected]
Настройки формата : CABAC / 4 Ref Frames
Параметр CABAC формата : Да
Параметр RefFrames формата : 4 кадра
Идентификатор кодека : V_MPEG4/ISO/AVC
Продолжительность : 1 ч. 37 м.
Вид битрейта : Переменный
Битрейт : 4 231 Кбит/сек
Максимальный битрейт : 6 375 Кбит/сек
Ширина : 1 280 пикселей
Высота : 720 пикселей
Соотношение сторон : 16:9
Режим частоты кадров : Постоянный
Частота кадров : 23,976 (24000/1001) кадра/сек
Цветовое пространство : YUV
Субдискретизация насыщенности : 4:2:0
Битовая глубина : 8 бит
Тип развёртки : Прогрессивная
Бит/(Пиксели*Кадры) : 0.191
Размер потока : 2,87 Гбайт (84%)
Заголовок : CMRG
Язык : English
Default : Да
Forced : Нет
Цветовой диапазон : Limited
Основные цвета : BT.709
Характеристики трансфера : BT.709
Коэффициенты матрицы : BT.709

Аудио #1
Идентификатор : 2
Формат : AC-3
Формат/Информация : Audio Coding 3
Коммерческое название : Dolby Digital
Идентификатор кодека : A_AC3
Продолжительность : 1 ч. 37 м.
Вид битрейта : Постоянный
Битрейт : 192 Кбит/сек
Каналы : 2 канала
Channel layout : L R
Частота : 48,0 КГц
Частота кадров : 31,250 кадров/сек (1536 SPF)
Метод сжатия : С потерями
Размер потока : 133 Мбайт (4%)
Заголовок : MVO [@[email protected]] MediaBit
Язык : Russian
Service kind : Complete Main
Default : Да
Forced : Нет

Аудио #2
Идентификатор : 3
Формат : AC-3
Формат/Информация : Audio Coding 3
Коммерческое название : Dolby Digital
Идентификатор кодека : A_AC3
Продолжительность : 1 ч. 37 м.
Вид битрейта : Постоянный
Битрейт : 640 Кбит/сек
Каналы : 6 каналов
Channel layout : L R C LFE Ls Rs
Частота : 48,0 КГц
Частота кадров : 31,250 кадров/сек (1536 SPF)
Метод сжатия : С потерями
Размер потока : 444 Мбайт (13%)
Язык : English
Service kind : Complete Main
Default : Нет
Forced : Нет

Текст #1
Идентификатор : 4
Формат : UTF-8
Идентификатор кодека : S_TEXT/UTF8
Идентификатор кодека/Информация : UTF-8 Plain Text
Продолжительность : 1 ч. 36 м.
Битрейт : 73 бит/сек
Count of elements : 1571
Размер потока : 52,2 Кбайт (0%)
Заголовок : English [SDH]
Язык : English
Default : Нет
Forced : Нет

Текст #2
Идентификатор : 5
Формат : UTF-8
Идентификатор кодека : S_TEXT/UTF8
Идентификатор кодека/Информация : UTF-8 Plain Text
Продолжительность : 1 ч. 36 м.
Битрейт : 64 бит/сек
Count of elements : 1356
Размер потока : 45,7 Кбайт (0%)
Заголовок : English
Язык : English
Default : Нет
Forced : Нет



Релиз от:

Download
Для скачивания .torrent файлов необходима регистрация
Сайт не распространяет и не хранит электронные версии произведений, а лишь предоставляет доступ к создаваемому пользователями каталогу ссылок на торрент-файлы, которые содержат только списки хеш-сумм

Страница 1 из 1

Ответить на тему

   Похожие торренты   Торрент 




tracker_crontracker_cron