Регистрация ·  Логин: Пароль: Запомнить   · Забыли пароль?




Ответить на тему
Статистика раздачи
Размер: 1.46 ГБ | Зарегистрирован: 13 окт 2020, 16:10 | .torrent скачан: 0 раз(а), DHT: [ 0 ] раз(а)
Сидеров: [ 0  | 0 байт/сек ]   Личеров: [ 0  | 0 байт/сек ]   DHT: [ 0 / 0 ]
Автор Сообщение

Модератор

С нами: 2 года 4 месяца
Сообщения: 3361
Россия

Сообщение 13 окт 2020, 16:10 

[Цитировать]


Информация о фильме
Название: Бесшумный
Оригинальное название: The Silencing
Год выхода: 2020
Жанр: Триллер, детектив, криминал
Режиссер: Робин Пронт
В ролях: Николай Костер-Валдау, Аннабелль Уоллис, Зан Маккларнон, Мелани Скрофано, Хиро Файнс-Тиффин, Джош Круддас, Даниэль Райан, Даина Барбо, Шон Смит, Кайла Дюмон, Лиза Кромарти, Леланд Ассиневай, Бриэль Робиллард, Шарлотта Линдси Мэррон

О фильме:
Мужчина средних лет с тяжелым прошлым по имени Рейбёрн работает смотрителем заповедника и много пьёт. Внезапно на местности находят тело девушки-подростка. Шериф выясняет, что на покойную охотились, причём с помощью первобытного метательного приспособления - атлатля. Пять лет назад у Рейбёрна пропала несовершеннолетняя дочь, поэтому, когда на лесных камерах наблюдения он видит, как неизвестный в маскировочном костюме преследует девушку, то не раздумывая бросается ей на помощь.

Страна: Канада, США
Студия: Anova Pictures, Madrona Drive, Silencing Canada Productions, Wildling Pictures
Продолжительность: 01:34:31
Перевод:
• Профессиональный (многоголосый, закадровый) | HDRezka Studio
Файл
Качество: BDRip-AVC
Исходник: The.Silencing.2020.BluRay.1080p.DTS-HD.MA.5.1.AVC.REMUX-FraMeSToR
Формат: MKV
Кодек: MPEG-4 AVC
Видео: 832x348 (2,40:1), 23,976 fps, MPEG-4 AVC ~ 1760 Кbps avg, 0.254 bit/pixel
Аудио: AC3, 48 kHz, 6 ch, ~448.00 kbps avg | русский | HDRezka Studio
Субтитры: Русские (форсированные, полные)
Общее
Уникальный идентификатор : 260272990858686004361887945073980002935 (0xC3CEC132C618762978C03F701F26D277)
Полное имя : The.Silencing.2020.MVO.BDRip.1.46Gb.x264.mkv
Формат : Matroska
Версия формата : Version 4
Размер файла : 1,46 Гбайт
Продолжительность : 1 ч. 34 м.
Общий поток : 2 209 Кбит/сек
Название фильма : Бесшумный / The Silencing (2020)
Дата кодирования : UTC 2020-09-26 07:26:52
Программа кодирования : mkvmerge v47.0.0 ('Black Flag') 64-bit
Библиотека кодирования : libebml v1.3.10 + libmatroska v1.5.2
Обложка : Yes
Attachments : cover.jpg / cover.jpg / Cover.jpg / Cover 2.jpg

Видео
Идентификатор : 1
Формат : AVC
Формат/Информация : Advanced Video Codec
Профиль формата : [email protected]
Настройки формата : CABAC / 11 Ref Frames
Параметр CABAC формата : Да
Параметр RefFrames формата : 11 кадров
Идентификатор кодека : V_MPEG4/ISO/AVC
Продолжительность : 1 ч. 34 м.
Битрейт : 1 760 Кбит/сек
Ширина : 832 пикселя
Высота : 348 пикселей
Соотношение сторон : 2,40:1
Режим частоты кадров : Постоянный
Частота кадров : 23,976 (23976/1000) кадра/сек
Цветовое пространство : YUV
Субдискретизация насыщенности : 4:2:0
Битовая глубина : 8 бит
Тип развёртки : Прогрессивная
Бит/(Пиксели*Кадры) : 0.254
Размер потока : 1,16 Гбайт (80%)
Заголовок : #stillet
Библиотека кодирования : x264 core 152 r2851bm ba24899
Настройки программы : cabac=1 / ref=11 / deblock=1:-2:-2 / analyse=0x3:0x113 / me=umh / subme=10 / psy=1 / psy_rd=1.00:0.15 / mixed_ref=1 / me_range=32 / chroma_me=1 / trellis=2 / 8x8dct=1 / cqm=0 / deadzone=21,11 / fast_pskip=0 / chroma_qp_offset=-3 / threads=8 / lookahead_threads=3 / sliced_threads=0 / nr=0 / decimate=0 / interlaced=0 / bluray_compat=0 / constrained_intra=0 / bframes=12 / b_pyramid=2 / b_adapt=2 / b_bias=0 / direct=3 / weightb=1 / open_gop=0 / weightp=2 / keyint=240 / keyint_min=23 / scenecut=40 / intra_refresh=0 / rc=2pass / mbtree=0 / bitrate=1760 / ratetol=1.0 / qcomp=0.60 / qpmin=0 / qpmax=69 / qpstep=4 / cplxblur=20.0 / qblur=0.5 / ip_ratio=1.40 / pb_ratio=1.30 / aq=1:1.00
Язык : English
Default : Да
Forced : Нет

Аудио
Идентификатор : 2
Формат : AC-3
Формат/Информация : Audio Coding 3
Коммерческое название : Dolby Digital
Идентификатор кодека : A_AC3
Продолжительность : 1 ч. 34 м.
Вид битрейта : Постоянный
Битрейт : 448 Кбит/сек
Каналы : 6 каналов
Channel layout : L R C LFE Ls Rs
Частота : 48,0 КГц
Частота кадров : 31,250 кадров/сек (1536 SPF)
Метод сжатия : С потерями
Размер потока : 303 Мбайт (20%)
Заголовок : MXO | HDRezka Studio
Язык : Russian
Service kind : Complete Main
Default : Да
Forced : Да

Текст #1
Идентификатор : 3
Формат : UTF-8
Идентификатор кодека : S_TEXT/UTF8
Идентификатор кодека/Информация : UTF-8 Plain Text
Продолжительность : 1 ч. 22 м.
Битрейт : 2 бит/сек
Count of elements : 29
Размер потока : 1,56 Кбайт (0%)
Заголовок : Forced
Язык : Russian
Default : Да
Forced : Да

Текст #2
Идентификатор : 4
Формат : UTF-8
Идентификатор кодека : S_TEXT/UTF8
Идентификатор кодека/Информация : UTF-8 Plain Text
Продолжительность : 1 ч. 25 м.
Битрейт : 52 бит/сек
Count of elements : 668
Размер потока : 33,1 Кбайт (0%)
Заголовок : Full
Язык : Russian
Default : Нет
Forced : Нет

Меню
00:00:00.000 : en:Chapter 1
00:04:47.454 : en:Chapter 2
00:09:15.722 : en:Chapter 3
00:12:39.801 : en:Chapter 4
00:17:16.410 : en:Chapter 5
00:22:32.476 : en:Chapter 6
00:28:47.059 : en:Chapter 7
00:34:04.251 : en:Chapter 8
00:41:10.760 : en:Chapter 9
00:47:53.245 : en:Chapter 10
00:54:38.859 : en:Chapter 11
00:59:10.380 : en:Chapter 12
01:05:07.612 : en:Chapter 13
01:10:54.959 : en:Chapter 14
01:17:58.090 : en:Chapter 15
01:26:57.712 : en:Chapter 16

Download
Для скачивания .torrent файлов необходима регистрация
Сайт не распространяет и не хранит электронные версии произведений, а лишь предоставляет доступ к создаваемому пользователями каталогу ссылок на торрент-файлы, которые содержат только списки хеш-сумм

Страница 1 из 1

Ответить на тему

   Похожие торренты   Торрент 




tracker_crontracker_cron