Регистрация ·  Логин: Пароль: Запомнить   · Забыли пароль?




Ответить на тему
Статистика раздачи
Размер: 1.65 ГБ | Зарегистрирован: 13 окт 2020, 16:10 | .torrent скачан: 0 раз(а), DHT: [ 0 ] раз(а)
Сидеров: [ 0  | 0 байт/сек ]   Личеров: [ 0  | 0 байт/сек ]   DHT: [ 0 / 0 ]
Автор Сообщение

Модератор

С нами: 2 года 4 месяца
Сообщения: 3361
Россия

Сообщение 13 окт 2020, 16:10 

[Цитировать]

Клаустрофобы: Квест в Москве / Follow Me

Информация о фильме:
Название: Клаустрофобы: Квест в Москве
Оригинальное название: Follow Me
Год выхода: 2020
Жанр: Ужасы, триллер
Режиссер: Уилл Верник
В ролях: Холлэнд Роден, Ронен Рубинштейн, Павел Личникофф, Кигэн Аллен, Кимберли Куинн, Дензел Уитакер, Эмилия Арес Зорян, Равиль Исянов, Доминик Паке, Эмили Хинклер
Описание: На протяжении многих лет фанат экстремальных приключений Коул ведет видеоблог, в котором делится с огромной армией своих подписчиков увлекательным и зрелищным контентом. Готовясь к 10-ой годовщине создания видеоблога Коула, его близкие друзья планируют необычный сюрприз: прохождение сложнейшего квеста в Москве. Когда герой узнает, что долгожданный подарок — всего лишь квест, он крайне расстроен, ведь надеялся записать ролик о чем-то более необычном для своих поклонников. Но то, что начинается как обычная приключенческая игра, вскоре превращается в борьбу за выживание, за которой следят миллионы зрителей в прямом эфире...

Страна: США
Студия: Escape Productions
Продолжительность: 01:31:47
Перевод: Любительский (многоголосый, закадровый) - @[email protected]

Информация о файле:
Кодек: AVC
Формат: MKV
Качество: WEB-DLRip-AVC
Видео: MPEG-4 AVC, 1024x426 (2.40:1), 2 389 kb/s, 23.976 fps, 0.228
Аудио RU: AC3, 2 ch, 48 kHz, 192 kbps


General
Unique ID : 45912123599397347526744206997383243298 (0x228A5A7621BFD0D3164758AB2DBB6622)
Complete name : D:uTorrentРипы_от_wolf1245_MediaBitFollow Me (2020) from wolf1245 & MediaBit.mkv
Format : Matroska
Format version : Version 4
File size : 1.65 GiB
Duration : 1 h 31 min
Overall bit rate : 2 579 kb/s
Movie name : Follow Me (2020) from wolf1245 & MediaBit
Encoded date : UTC 2020-09-25 18:52:47
Writing application : mkvmerge v50.0.0 ('Awakenings') 64-bit
Writing library : libebml v1.4.0 + libmatroska v1.6.2
Video
ID : 1
Format : AVC
Format/Info : Advanced Video Codec
Format profile : [email protected]
Format settings : CABAC / 12 Ref Frames
Format settings, CABAC : Yes
Format settings, Reference frames : 12 frames
Codec ID : V_MPEG4/ISO/AVC
Duration : 1 h 31 min
Bit rate : 2 389 kb/s
Width : 1 024 pixels
Height : 426 pixels
Display aspect ratio : 2.40:1
Frame rate mode : Constant
Frame rate : 23.976 (24000/1001) FPS
Color space : YUV
Chroma subsampling : 4:2:0
Bit depth : 8 bits
Scan type : Progressive
Bits/(Pixel*Frame) : 0.228
Stream size : 1.53 GiB (92%)
Title : wolf1245 & MediaBit
Writing library : x264 core 157 r2958 57baac4
Encoding settings : cabac=1 / ref=12 / deblock=1:-2:-2 / analyse=0x3:0x133 / me=umh / subme=11 / psy=1 / psy_rd=1.02:0.05 / mixed_ref=1 / me_range=48 / chroma_me=1 / trellis=2 / 8x8dct=1 / cqm=0 / deadzone=21,11 / fast_pskip=0 / chroma_qp_offset=-3 / threads=10 / lookahead_threads=2 / sliced_threads=0 / nr=0 / decimate=0 / interlaced=0 / bluray_compat=0 / constrained_intra=0 / bframes=12 / b_pyramid=2 / b_adapt=2 / b_bias=0 / direct=3 / weightb=1 / open_gop=0 / weightp=2 / keyint=240 / keyint_min=24 / scenecut=40 / intra_refresh=0 / rc_lookahead=55 / rc=2pass / mbtree=0 / bitrate=2389 / ratetol=1.0 / qcomp=0.60 / qpmin=0 / qpmax=69 / qpstep=4 / cplxblur=20.0 / qblur=0.5 / vbv_maxrate=50000 / vbv_bufsize=62500 / nal_hrd=none / filler=0 / ip_ratio=1.40 / pb_ratio=1.30 / aq=3:0.85
Language : English
Default : Yes
Forced : No
Color range : Limited
Color primaries : BT.709
Transfer characteristics : BT.709
Matrix coefficients : BT.709
Audio
ID : 2
Format : AC-3
Format/Info : Audio Coding 3
Commercial name : Dolby Digital
Codec ID : A_AC3
Duration : 1 h 31 min
Bit rate mode : Constant
Bit rate : 192 kb/s
Channel(s) : 2 channels
Channel layout : L R
Sampling rate : 48.0 kHz
Frame rate : 31.250 FPS (1536 SPF)
Compression mode : Lossy
Stream size : 126 MiB (7%)
Title : MVO [@[email protected]] MediaBit
Language : Russian
Service kind : Complete Main
Default : Yes
Forced : No

Релиз от: &

Download
Для скачивания .torrent файлов необходима регистрация
Сайт не распространяет и не хранит электронные версии произведений, а лишь предоставляет доступ к создаваемому пользователями каталогу ссылок на торрент-файлы, которые содержат только списки хеш-сумм

Страница 1 из 1

Ответить на тему

   Похожие торренты   Торрент 




tracker_crontracker_cron