Регистрация ·  Логин: Пароль: Запомнить   · Забыли пароль?




Ответить на тему
Статистика раздачи
Размер: 1.45 ГБ | Зарегистрирован: 13 окт 2020, 16:09 | .torrent скачан: 0 раз(а), DHT: [ 0 ] раз(а)
Сидеров: [ 0  | 0 байт/сек ]   Личеров: [ 0  | 0 байт/сек ]   DHT: [ 0 / 0 ]
Автор Сообщение

Модератор

С нами: 2 года 5 месяцев
Сообщения: 3401
Россия

Сообщение 13 окт 2020, 16:09 

[Цитировать]

Марионетка / Marionette

Информация о фильме:
Название: Марионетка
Оригинальное название: Marionette
Год выхода: 2020
Жанр: Триллер, детектив
Режиссер: Элберт ван Стриен
В ролях: Питер Муллан, Текла Рютен, Ребекка Фронт, Билл Патерсон, Иман Эллиотт, Сэм Хэзелдайн, Перл Чанда, Доун Стил, Йохм тен Хааф, Элайджа Вульф, Марни Бакстер, Джон Скугэлл, Джеффри Ньюлэнд, Элизабет Йоханнесдоттир, Крэйг Келли, Джулиан Нест
Описание: Мэриан уже много лет успешно работает детским психотерапевтом, но знакомство c замкнутым 10-летним мальчиком Мэнни заставляет ее усомниться в своей компетентности, а после – в том, что реально. Все, что рисует ребенок, вскоре случается. Но это отнюдь не милые детские фантазии... А мрачные, леденящие душу сюжеты, герои которых отныне – марионетки в неведомой никому игре.

Страна: Нидерланды, Люксембург, Великобритания
Студия: Accento Films, Black Camel Pictures, BosBros
Продолжительность: 01:47:46
Перевод: Дублированный - iTunes

Информация о файле:
Кодек: AVC
Формат: MKV
Качество: WEB-DLRip-AVC
Видео: MPEG-4 AVC, 1024x428 (2.40:1), 25.000 fps, 1 539 kb/s, 0.140
Аудио RU: AC3, 6 ch, 48 kHz, 384 kbps
Навигация по главам: Есть


x264 info: frame I:1449 Avg QP:13.76 size: 61699
x264 info: frame P:39301 Avg QP:16.87 size: 16425
x264 info: frame B:120913 Avg QP:19.08 size: 4207
x264 info: consecutive B-frames: 1.7% 3.2% 4.2% 62.3% 8.5% 16.6% 1.1% 1.4% 0.1% 0.1% 0.1% 0.1% 0.5%
--------------------------------------
General
Unique ID : 109836158028266991287960771158200848653 (0x52A1ACB0C55509CA5E73AF46CB7C910D)
Complete name : D:uTorrentРипы_от_wolf1245_MediaBitMarionette (2020) WEB-DLRip-AVC from wolf1245 & MediaBit.mkv
Format : Matroska
Format version : Version 4
File size : 1.45 GiB
Duration : 1 h 47 min
Overall bit rate : 1 926 kb/s
Movie name : Marionette (2020) WEB-DLRip-AVC from wolf1245 & MediaBit
Encoded date : UTC 2020-09-25 13:56:23
Writing application : mkvmerge v50.0.0 ('Awakenings') 64-bit
Writing library : libebml v1.4.0 + libmatroska v1.6.2
Cover : Yes
Attachments : cover
Video
ID : 1
Format : AVC
Format/Info : Advanced Video Codec
Format profile : [email protected]
Format settings : CABAC / 12 Ref Frames
Format settings, CABAC : Yes
Format settings, Reference frames : 12 frames
Codec ID : V_MPEG4/ISO/AVC
Duration : 1 h 47 min
Bit rate : 1 539 kb/s
Width : 1 024 pixels
Height : 428 pixels
Display aspect ratio : 2.40:1
Frame rate mode : Constant
Frame rate : 25.000 FPS
Color space : YUV
Chroma subsampling : 4:2:0
Bit depth : 8 bits
Scan type : Progressive
Bits/(Pixel*Frame) :
Stream size : 1.16 GiB (80%)
Title : from wolf1245 & MediaBit
Writing library : x264 core 157 r2958 57baac4
Encoding settings : cabac=1 / ref=12 / deblock=1:-2:-2 / analyse=0x3:0x133 / me=umh / subme=11 / psy=1 / psy_rd=1.02:0.06 / mixed_ref=1 / me_range=48 / chroma_me=1 / trellis=2 / 8x8dct=1 / cqm=0 / deadzone=21,11 / fast_pskip=0 / chroma_qp_offset=-3 / threads=10 / lookahead_threads=2 / sliced_threads=0 / nr=0 / decimate=0 / interlaced=0 / bluray_compat=0 / constrained_intra=0 / bframes=12 / b_pyramid=2 / b_adapt=2 / b_bias=0 / direct=3 / weightb=1 / open_gop=0 / weightp=2 / keyint=250 / keyint_min=25 / scenecut=40 / intra_refresh=0 / rc_lookahead=55 / rc=2pass / mbtree=0 / bitrate=1539 / ratetol=1.0 / qcomp=0.60 / qpmin=0 / qpmax=69 / qpstep=4 / cplxblur=20.0 / qblur=0.5 / vbv_maxrate=50000 / vbv_bufsize=62500 / nal_hrd=none / filler=0 / ip_ratio=1.40 / pb_ratio=1.30 / aq=2:0.85
Language : English
Default : Yes
Forced : No
Color range : Limited
Color primaries : BT.709
Transfer characteristics : BT.709
Matrix coefficients : BT.709
Audio
ID : 2
Format : AC-3
Format/Info : Audio Coding 3
Commercial name : Dolby Digital
Codec ID : A_AC3
Duration : 1 h 47 min
Bit rate mode : Constant
Bit rate : 384 kb/s
Channel(s) : 6 channels
Channel layout : L R C LFE Ls Rs
Sampling rate : 48.0 kHz
Frame rate : 31.250 FPS (1536 SPF)
Compression mode : Lossy
Stream size : 296 MiB (20%)
Title : [DUB] | iTunes
Language : Russian
Service kind : Complete Main
Default : Yes
Forced : No
Menu
00:00:00.000 : :Глава 1
00:09:03.520 : :Глава 2
00:17:07.960 : :Глава 3
00:25:30.120 : :Глава 4
00:34:23.920 : :Глава 5
00:43:09.160 : :Глава 6
00:51:46.680 : :Глава 7
01:00:03.600 : :Глава 8
01:09:50.160 : :Глава 9
01:18:37.160 : :Глава 10
01:27:19.240 : :Глава 11
01:35:44.720 : :Глава 12

Релиз от: &


Download
Для скачивания .torrent файлов необходима регистрация
Сайт не распространяет и не хранит электронные версии произведений, а лишь предоставляет доступ к создаваемому пользователями каталогу ссылок на торрент-файлы, которые содержат только списки хеш-сумм

Страница 1 из 1

Ответить на тему

   Похожие торренты   Торрент