Регистрация ·  Логин: Пароль: Запомнить   · Забыли пароль?




Ответить на тему
Статистика раздачи
Размер: 5.78 ГБ | Зарегистрирован: 13 окт 2020, 16:09 | .torrent скачан: 0 раз(а), DHT: [ 0 ] раз(а)
Сидеров: [ 0  | 0 байт/сек ]   Личеров: [ 0  | 0 байт/сек ]   DHT: [ 0 / 0 ]
Автор Сообщение

Модератор

С нами: 2 года 5 месяцев
Сообщения: 3401
Россия

Сообщение 13 окт 2020, 16:09 

[Цитировать]


Информация о фильме
Название: Гостевой дом
Оригинальное название: Guest House
Год выхода: 2020
Жанр: комедия

Режиссер: Сэм Маккароне

В ролях: Билли Зейн, Эйми Тигарден, Микаела Хувер, Луис Ферриньо мл., Поли Шор, Бобби Ли, Шарлотта МакКинни, Эрик Гриффин, Лу Ферриньо, Лиз Кац

О фильме:
Недавно помолвленная пара находит дом своей мечты, который со временем становится для них настоящим кошмаром. Друг предыдущего владельца без разрешения поселился в доме, что привело к войне за территорию, которая в конечном итоге разрушила дом пары, их брак и жизни.




Страна: США
Продолжительность: 01:24:20
Перевод: Любительский многоголосый | @[email protected]

Файл
Кодек: x.264
Качество: WEB-DL 1080p (Amazon)
Видео: AVC, 1920x1080 (16:9), 23.976 fps, 8981 kb/s
Аудио 1: AC3, 48.0 kHz, 2 ch, 192 kb/s | RUS
Аудио 2: E-AC3, 48.0 kHz, 6 ch, 640 kb/s | ENG
Субтитры: Английские

Работа со звуком - maksciganov

Рекламы нет | Сэмпл | Трейлер

General
Unique ID : 192638903354079968262949154712321702403 (0x90ECE73AE4135D9BA7EE18FEF52ABA03)
Complete name : Guest.House.2020.1080p.AMZN.WEB-DL.mkv
Format : Matroska
Format version : Version 4
File size : 5.78 GiB
Duration : 1 h 24 min
Overall bit rate : 9 816 kb/s
Encoded date : UTC 2020-09-25 13:00:09
Writing application : mkvmerge v8.3.0 ('Over the Horizon') 64bit
Writing library : libebml v1.3.1 + libmatroska v1.4.2

Video
ID : 1
Format : AVC
Format/Info : Advanced Video Codec
Format profile : [email protected]
Format settings : CABAC / 4 Ref Frames
Format settings, CABAC : Yes
Format settings, ReFrames : 4 frames
Codec ID : V_MPEG4/ISO/AVC
Duration : 1 h 24 min
Bit rate mode : Constant
Bit rate : 8 981 kb/s
Nominal bit rate : 10 000 kb/s
Width : 1 920 pixels
Height : 1 080 pixels
Display aspect ratio : 16:9
Frame rate mode : Constant
Frame rate : 23.976 (24000/1001) FPS
Color space : YUV
Chroma subsampling : 4:2:0
Bit depth : 8 bits
Scan type : Progressive
Bits/(Pixel*Frame) : 0.181
Stream size : 5.29 GiB (91%)
Default : Yes
Forced : No
Color range : Limited
Color primaries : BT.709
Transfer characteristics : BT.709
Matrix coefficients : BT.709

Audio #1
ID : 2
Format : AC-3
Format/Info : Audio Coding 3
Commercial name : Dolby Digital
Codec ID : A_AC3
Duration : 1 h 24 min
Bit rate mode : Constant
Bit rate : 192 kb/s
Channel(s) : 2 channels
Channel layout : L R
Sampling rate : 48.0 kHz
Frame rate : 31.250 FPS (1536 SPF)
Bit depth : 16 bits
Compression mode : Lossy
Stream size : 116 MiB (2%)
Title : MVO [@[email protected]]
Language : Russian
Service kind : Complete Main
Default : Yes
Forced : No

Audio #2
ID : 3
Format : E-AC-3
Format/Info : Enhanced AC-3
Commercial name : Dolby Digital Plus
Codec ID : A_EAC3
Duration : 1 h 24 min
Bit rate mode : Constant
Bit rate : 640 kb/s
Channel(s) : 6 channels
Channel layout : L R C LFE Ls Rs
Sampling rate : 48.0 kHz
Frame rate : 31.250 FPS (1536 SPF)
Compression mode : Lossy
Stream size : 386 MiB (7%)
Language : English
Service kind : Complete Main
Default : No
Forced : No

Text #1
ID : 4
Format : UTF-8
Codec ID : S_TEXT/UTF8
Codec ID/Info : UTF-8 Plain Text
Duration : 1 h 19 min
Bit rate : 84 b/s
Count of elements : 1395
Stream size : 49.1 KiB (0%)
Title : Full
Language : English
Default : No
Forced : No

Text #2
ID : 5
Format : UTF-8
Codec ID : S_TEXT/UTF8
Codec ID/Info : UTF-8 Plain Text
Duration : 1 h 22 min
Bit rate : 89 b/s
Count of elements : 1545
Stream size : 53.6 KiB (0%)
Title : SDH
Language : English
Default : No
Forced : No


Download
Для скачивания .torrent файлов необходима регистрация
Сайт не распространяет и не хранит электронные версии произведений, а лишь предоставляет доступ к создаваемому пользователями каталогу ссылок на торрент-файлы, которые содержат только списки хеш-сумм

Страница 1 из 1

Ответить на тему

   Похожие торренты   Торрент