Регистрация ·  Логин: Пароль: Запомнить   · Забыли пароль?




Ответить на тему
Статистика раздачи
Размер: 750.95 МБ | Зарегистрирован: 13 окт 2020, 16:09 | .torrent скачан: 0 раз(а), DHT: [ 40 ] раз(а)
Сидеров: [ 11  | 0 байт/сек ]   Личеров: [ 1  | 0 байт/сек ]   DHT: [ 11 / 1 ]
Автор Сообщение

Модератор

С нами: 2 года 4 месяца
Сообщения: 3361
Россия

Сообщение 13 окт 2020, 16:09 

[Цитировать]

Артур и Мерлин: Рыцари Камелота / Arthur and Merlin: Knights of Camelot

Информация о фильме:
Название: Артур и Мерлин: Рыцари Камелота
Оригинальное название: Arthur & Merlin: Knights of Camelot
Год выхода: 2020
Жанр: Боевик, приключения, история
Режиссер: Джиллз Алдерсон
В ролях: Ричард Брэйк, Ричард Шорт, Джо Иган, Стелла Стокер, Оливия Бернстоун, Ронан Саммерс, Стефан Боэм, Эмили Хэй, Йен Шарп, Дженнифер Мэттер
Описание: Измученный войной Король Артур возвращается в Камелот после десятилетий борьбы с Римской империей. Но в его отсутствие его незаконнорожденный сын Мордред объявил себя королём и стал притязать на королеву Гвиневеру. Артур вместе с верными рыцарями Круглого стола вновь должен сражаться, чтобы вернуть свою корону. Но придет ли на помощь Мерлин? И как далеко может зайти король ради спасения чести своей королевы?

Страна: Великобритания
Студия: Dagger Films, Picture Perfect
Продолжительность: 01:30:51
Перевод: Дублированный - iTunes

Информация о файле:
Кодек: AVC
Формат: MKV
Качество: HDRip-AVC
Видео: MPEG-4 AVC, 720x308 (2.35:1), 23.976 fps, 1059 kbps, 0.199
Аудио RU: AAC-HE, 2 ch, 48 kHz, 96 kbps
Навигация по главам: Есть


General
Unique ID : 95852189999920719358597959707185561877 (0x481C75D5EE9B9D4688B67CF90A02C115)
Complete name : D:uTorrentРипы_от_wolf1245_MediaBitArthur & Merlin- Knights of Camelot 2020 from wolf1245 & MediaBit.mkv
Format : Matroska
Format version : Version 4
File size : 751 MiB
Duration : 1 h 30 min
Overall bit rate : 1 155 kb/s
Movie name : Arthur & Merlin: Knights of Camelot 2020 from wolf1245 & MediaBit
Encoded date : UTC 2020-09-25 06:06:08
Writing application : mkvmerge v50.0.0 ('Awakenings') 64-bit
Writing library : libebml v1.4.0 + libmatroska v1.6.2
Video
ID : 1
Format : AVC
Format/Info : Advanced Video Codec
Format profile : [email protected]
Format settings : CABAC / 12 Ref Frames
Format settings, CABAC : Yes
Format settings, Reference frames : 12 frames
Codec ID : V_MPEG4/ISO/AVC
Duration : 1 h 30 min
Bit rate : 1 059 kb/s
Width : 720 pixels
Height : 308 pixels
Display aspect ratio : 2.35:1
Frame rate mode : Constant
Frame rate : 23.976 (24000/1001) FPS
Color space : YUV
Chroma subsampling : 4:2:0
Bit depth : 8 bits
Scan type : Progressive
Bits/(Pixel*Frame) : 0.199
Stream size : 687 MiB (92%)
Title : from wolf1245 & MediaBit
Writing library : x264 core 157 r2958 57baac4
Encoding settings : cabac=1 / ref=12 / deblock=1:-3:-3 / analyse=0x3:0x133 / me=umh / subme=11 / psy=1 / psy_rd=0.98:0.06 / mixed_ref=1 / me_range=48 / chroma_me=1 / trellis=2 / 8x8dct=1 / cqm=0 / deadzone=21,11 / fast_pskip=0 / chroma_qp_offset=-3 / threads=10 / lookahead_threads=2 / sliced_threads=0 / nr=0 / decimate=0 / interlaced=0 / bluray_compat=0 / constrained_intra=0 / bframes=12 / b_pyramid=2 / b_adapt=2 / b_bias=0 / direct=3 / weightb=1 / open_gop=0 / weightp=2 / keyint=240 / keyint_min=24 / scenecut=40 / intra_refresh=0 / rc_lookahead=60 / rc=2pass / mbtree=0 / bitrate=1059 / ratetol=1.0 / qcomp=0.60 / qpmin=0 / qpmax=69 / qpstep=4 / cplxblur=20.0 / qblur=0.5 / vbv_maxrate=50000 / vbv_bufsize=62500 / nal_hrd=none / filler=0 / ip_ratio=1.40 / pb_ratio=1.30 / aq=1:1.00
Language : English
Default : Yes
Forced : No
Audio
ID : 2
Format : AAC LC SBR
Format/Info : Advanced Audio Codec Low Complexity with Spectral Band Replication
Commercial name : HE-AAC
Format settings : Implicit
Codec ID : A_AAC-2
Duration : 1 h 30 min
Bit rate : 96.0 kb/s
Channel(s) : 6 channels
Channel layout : C L R Ls Rs LFE
Sampling rate : 48.0 kHz
Frame rate : 23.438 FPS (2048 SPF)
Compression mode : Lossy
Stream size : 62.4 MiB (8%)
Title : DUB | iTunes
Language : Russian
Default : Yes
Forced : No
Menu
00:00:00.000 : :Kapitel 01
00:10:03.686 : :Kapitel 02
00:21:55.063 : :Kapitel 03
00:32:49.550 : :Kapitel 04
00:44:21.909 : :Kapitel 05
00:55:33.163 : :Kapitel 06
01:06:24.772 : :Kapitel 07
01:12:42.358 : :Kapitel 08

Релиз от: &

Download
Для скачивания .torrent файлов необходима регистрация
Сайт не распространяет и не хранит электронные версии произведений, а лишь предоставляет доступ к создаваемому пользователями каталогу ссылок на торрент-файлы, которые содержат только списки хеш-сумм

Страница 1 из 1

Ответить на тему

   Похожие торренты   Торрент 




tracker_crontracker_cron