Регистрация ·  Логин: Пароль: Запомнить   · Забыли пароль?




Ответить на тему
Статистика раздачи
Размер: 1.45 ГБ | Зарегистрирован: 13 окт 2020, 16:09 | .torrent скачан: 0 раз(а), DHT: [ 0 ] раз(а)
Сидеров: [ 0  | 0 байт/сек ]   Личеров: [ 0  | 0 байт/сек ]   DHT: [ 0 / 0 ]
Автор Сообщение

Модератор

С нами: 2 года 4 месяца
Сообщения: 3361
Россия

Сообщение 13 окт 2020, 16:09 

[Цитировать]



Название: Артур и Мерлин: Рыцари Камелота
Оригинальное название: Arthur and Merlin: Knights of Camelot
Год выхода: 2020
Жанр: Боевик, приключения, история
Режиссер: Джиллз Алдерсон
В ролях: Ричард Шорт, Джоэль Филлимор, Стелла Стокер, Ричард Брэйк, Оливия Бернстоун, Эмили Хэй, Джо Иган, Дженнифер Мэттер, Ронан Саммерс, Стефан Боэм

О фильме:
Измученный войной Король Артур возвращается в Камелот после десятилетий борьбы с Римской империей. Но в его отсутствие его незаконнорожденный сын Мордред объявил себя королём и стал притязать на королеву Гвиневеру. Артур вместе с верными рыцарями Круглого стола вновь должен сражаться, чтобы вернуть свою корону. Но придет ли на помощь Мерлин? И как далеко может зайти король ради спасения чести своей королевы?



Страна: Великобритания
Студия: Dagger Films, Picture Perfect
Продолжительность: 01:30:51
Перевод: Профессиональный (полное дублирование) | iTunes

Формат: MKV
Качество: BDRip-AVC
Видео: MPEG-4 AVC, 1024x436 (2.36:1), 23.976 fps, 1895 Kbps, 0.177 bit/pixel
Аудио : 48 kHz, AC3, 5.1, 384 Kbps | iTunes | RUS |
x264 [info]: frame I:1123 Avg QP:10.72 size: 70570
x264 [info]: frame P:27224 Avg QP:14.29 size: 22037
x264 [info]: frame B:102362 Avg QP:16.43 size: 5968
x264 [info]: consecutive B-frames: 2.3% 2.5% 7.3% 11.1% 15.7% 50.6% 4.9% 1.6% 2.0% 1.9%
----------------------------------------------------
General
Unique ID : 233348918207501959892874810159904197027 (0xAF8D5DED979BD2E788E9F0E201CE09A3)
Complete name : F:Arthur.and.Merlin.Knights.of.Camelot.2020.BDRip.AVC.ExKinoRay.mkv
Format : Matroska
Format version : Version 2
File size : 1.45 GiB
Duration : 1 h 30 min
Overall bit rate : 2 277 kb/s
Movie name : Arthur and Merlin Knights of Camelot 2020 from ExKinoRay
Encoded date : UTC 2020-09-25 01:08:54
Writing application : mkvmerge v5.6.0 ('Kenya Kane') built on May 27 2012 16:44:04
Writing library : libebml v1.2.3 + libmatroska v1.3.0

Video
ID : 1
Format : AVC
Format/Info : Advanced Video Codec
Format profile : [email protected]
Format settings, CABAC : Yes
Format settings, ReFrames : 12 frames
Codec ID : V_MPEG4/ISO/AVC
Duration : 1 h 30 min
Bit rate : 1 895 kb/s
Width : 1 024 pixels
Height : 436 pixels
Display aspect ratio : 2.35:1
Frame rate mode : Constant
Frame rate : 23.976 (23976/1000) FPS
Color space : YUV
Chroma subsampling : 4:2:0
Bit depth : 8 bits
Scan type : Progressive
Bits/(Pixel*Frame) : 0.177
Stream size : 1.17 GiB (81%)
Title : Enigma
Writing library : x264 core 152 r2851 ba24899
Encoding settings : cabac=1 / ref=12 / deblock=1:-2:-2 / analyse=0x3:0x113 / me=umh / subme=10 / psy=1 / psy_rd=1.03:0.05 / mixed_ref=1 / me_range=32 / chroma_me=1 / trellis=2 / 8x8dct=1 / cqm=0 / deadzone=21,11 / fast_pskip=0 / chroma_qp_offset=-3 / threads=12 / lookahead_threads=2 / sliced_threads=0 / nr=0 / decimate=0 / interlaced=0 / bluray_compat=0 / constrained_intra=0 / bframes=9 / b_pyramid=2 / b_adapt=2 / b_bias=0 / direct=3 / weightb=1 / open_gop=0 / weightp=2 / keyint=240 / keyint_min=23 / scenecut=40 / intra_refresh=0 / rc=2pass / mbtree=0 / bitrate=1895 / ratetol=1.0 / qcomp=0.60 / qpmin=0 / qpmax=51 / qpstep=4 / cplxblur=20.0 / qblur=0.5 / ip_ratio=1.40 / pb_ratio=1.30 / aq=2:0.90
Language : English
Default : Yes
Forced : No
Color range : Limited
Color primaries : BT.709
Transfer characteristics : BT.709
Matrix coefficients : BT.709

Audio
ID : 2
Format : AC-3
Format/Info : Audio Coding 3
Mode extension : CM (complete main)
Format settings, Endianness : Big
Codec ID : A_AC3
Duration : 1 h 30 min
Bit rate mode : Constant
Bit rate : 384 kb/s
Channel(s) : 6 channels
Channel positions : Front: L C R, Side: L R, LFE
Sampling rate : 48.0 kHz
Frame rate : 31.250 FPS (1536 spf)
Compression mode : Lossy
Stream size : 250 MiB (17%)
Title : iTunes
Language : Russian
Default : Yes
Forced : No

Menu
00:00:00.000 : :Kapitel 01
00:10:03.686 : :Kapitel 02
00:21:55.063 : :Kapitel 03
00:32:49.550 : :Kapitel 04
00:44:21.909 : :Kapitel 05
00:55:33.163 : :Kapitel 06
01:06:24.772 : :Kapitel 07
01:12:42.358 : :Kapitel 08




Релиз от:

Автор релиза:

Download
Для скачивания .torrent файлов необходима регистрация
Сайт не распространяет и не хранит электронные версии произведений, а лишь предоставляет доступ к создаваемому пользователями каталогу ссылок на торрент-файлы, которые содержат только списки хеш-сумм

Страница 1 из 1

Ответить на тему

   Похожие торренты   Торрент 




tracker_crontracker_cron