Регистрация ·  Логин: Пароль: Запомнить   · Забыли пароль?




Ответить на тему
Статистика раздачи
Размер: 7.64 ГБ | Зарегистрирован: 13 окт 2020, 16:08 | .torrent скачан: 0 раз(а), DHT: [ 0 ] раз(а)
Сидеров: [ 0  | 0 байт/сек ]   Личеров: [ 0  | 0 байт/сек ]   DHT: [ 0 / 0 ]
Автор Сообщение

Модератор

С нами: 2 года 4 месяца
Сообщения: 3361
Россия

Сообщение 13 окт 2020, 16:08 

[Цитировать]


Информация о фильме
Название: Мой шпион
Оригинальное название: My Spy
Год выхода: 2020
Жанр: Боевик, комедия, семейный
Режиссер: Питер Сигал
В ролях: Дэйв Батиста, Хлоя Коулмэн, Париса Фитц-Хенли, Кристен Шаал, Грег Брайк, Кен Жонг, Никола Коррейя-Дамуд, Девере Роджерс, Ноа Дэнби, Вьеслав Кристиан

О фильме:
Опытный специальный агент ЦРУ выполняет очень секретную миссию. Он наблюдает за семейной парой. Главному герою предстоит полностью подчиниться власти девятилетней дочери объектов наблюдения, чтобы не быть раскрытым и довести дело до конца. Девочка очень шебутная и непредсказуемая. Агент ЦРУ вынужден выполнять все ее пожелания, иначе может провалить задание. А это чревато серьезными проблемами с начальством и нанесет сильнейший урон по репутации, вплоть до разжалования из отряда спецагентов. Кинокартина изобилует красочными кадрами, смешными моментами и неожиданными поворотами сюжета.


Страна: США
Студия: MWM Studios, STX Entertainment, Odd Lot Entertainment, The Robert Simonds Company
Продолжительность: 01:41:01
Перевод: Дублированный

Файл
Качество: BDRip 1080p
Видео: MPEG-4 AVC, 9800 Кбит/с, 1920x804, 23.976 Кадр/с
Звук:
Aудио#1: Russian: 48 kHz, AC3, 3/2 (L,C,R,l,r) + LFE ch, ~384.00 kbps avg |Дубляж, iTunes|
Aудио#2: English: 48 kHz, AC3, 3/2 (L,C,R,l,r) + LFE ch, ~640.00 kbps avg
Субтитры: English (SDH)

x264 [info]: frame I:1319 Avg QP:15.32 size:223173
x264 [info]: frame P:31280 Avg QP:17.82 size: 89914
x264 [info]: frame B:112728 Avg QP:18.75 size: 38281

Формат : Matroska
Версия формата : Version 4
Размер файла : 7,64 Гбайт
Продолжительность : 1 ч. 41 м.
Общий поток : 10,8 Мбит/сек
Название фильма : My.Spy.2020.x264.BDRip.1080p.Rus.Eng.ExKinoRay
Дата кодирования : UTC 2020-09-24 11:53:05
Программа кодирования : mkvmerge v50.0.0 ('Awakenings') 64-bit
Библиотека кодирования : libebml v1.4.0 + libmatroska v1.6.2

Видео
Идентификатор : 1
Формат : AVC
Формат/Информация : Advanced Video Codec
Профиль формата : [email protected]
Настройки формата : CABAC / 5 Ref Frames
Параметр CABAC формата : Да
Параметр RefFrames формата : 5 кадров
Идентификатор кодека : V_MPEG4/ISO/AVC
Продолжительность : 1 ч. 41 м.
Битрейт : 9 800 Кбит/сек
Ширина : 1 920 пикселей
Высота : 804 пикселя
Соотношение сторон : 2,40:1
Режим частоты кадров : Постоянный
Частота кадров : 23,976 кадра/сек
Цветовое пространство : YUV
Субдискретизация насыщенности : 4:2:0
Битовая глубина : 8 бит
Тип развёртки : Прогрессивная
Бит/(Пиксели*Кадры) : 0.265
Размер потока : 6,91 Гбайт (91%)
Заголовок : My.Spy.2020.x264.BDRip.1080p.Rus.Eng.ExKinoRay
Библиотека кодирования : x264 core 160 r3000 33f9e14
Настройки программы : cabac=1 / ref=5 / deblock=1:-3:-3 / analyse=0x3:0x113 / me=umh / subme=11 / psy=1 / psy_rd=1.05:0.00 / mixed_ref=1 / me_range=32 / chroma_me=1 / trellis=2 / 8x8dct=1 / cqm=0 / deadzone=21,11 / fast_pskip=0 / chroma_qp_offset=-2 / threads=18 / lookahead_threads=3 / sliced_threads=0 / nr=0 / decimate=0 / interlaced=0 / bluray_compat=0 / constrained_intra=0 / bframes=9 / b_pyramid=2 / b_adapt=2 / b_bias=0 / direct=3 / weightb=1 / open_gop=0 / weightp=2 / keyint=240 / keyint_min=23 / scenecut=40 / intra_refresh=0 / rc_lookahead=100 / rc=2pass / mbtree=0 / bitrate=9800 / ratetol=1.0 / qcomp=0.60 / qpmin=0 / qpmax=69 / qpstep=4 / cplxblur=20.0 / qblur=0.5 / vbv_maxrate=62500 / vbv_bufsize=78125 / nal_hrd=none / filler=0 / ip_ratio=1.30 / pb_ratio=1.20 / aq=3:0.80 / zones=98692,99148,b=1.4/136257,145326,b=0.25
Язык : English
Default : Да
Forced : Нет

Аудио #1
Идентификатор : 2
Формат : AC-3
Формат/Информация : Audio Coding 3
Коммерческое название : Dolby Digital
Идентификатор кодека : A_AC3
Продолжительность : 1 ч. 40 м.
Вид битрейта : Постоянный
Битрейт : 384 Кбит/сек
Каналы : 6 каналов
Channel layout : L R C LFE Ls Rs
Частота : 48,0 КГц
Частота кадров : 31,250 кадров/сек (1536 SPF)
Метод сжатия : С потерями
Размер потока : 276 Мбайт (4%)
Заголовок : Дублированный (iTunes)
Язык : Russian
Default : Да
Forced : Нет

Аудио #2
Идентификатор : 3
Формат : AC-3
Формат/Информация : Audio Coding 3
Коммерческое название : Dolby Digital
Идентификатор кодека : A_AC3
Продолжительность : 1 ч. 41 м.
Вид битрейта : Постоянный
Битрейт : 640 Кбит/сек
Каналы : 6 каналов
Channel layout : L R C LFE Ls Rs
Частота : 48,0 КГц
Частота кадров : 31,250 кадров/сек (1536 SPF)
Метод сжатия : С потерями
Размер потока : 462 Мбайт (6%)
Заголовок : DD Audio 5.1 ch 640 Kbps
Язык : English
Default : Нет
Forced : Нет

Текст
Идентификатор : 4
Формат : UTF-8
Идентификатор кодека : S_TEXT/UTF8
Идентификатор кодека/Информация : UTF-8 Plain Text
Продолжительность : 1 ч. 32 м.
Битрейт : 70 бит/сек
Count of elements : 1597
Размер потока : 47,9 Кбайт (0%)
Заголовок : SDH
Язык : English
Default : Нет
Forced : Нет

Меню
00:00:00.000 : :Chapter 01
00:09:58.556 : :Chapter 02
00:18:33.778 : :Chapter 03
00:23:39.541 : :Chapter 04
00:31:39.855 : :Chapter 05
00:41:08.632 : :Chapter 06
00:50:19.599 : :Chapter 07
00:59:30.983 : :Chapter 08
01:07:40.930 : :Chapter 09
01:16:00.430 : :Chapter 10
01:24:45.371 : :Chapter 11
01:32:48.604 : :Chapter 12
Fixed OCR subs.
Used bitrate zones.



Релиз от:

Download
Для скачивания .torrent файлов необходима регистрация
Сайт не распространяет и не хранит электронные версии произведений, а лишь предоставляет доступ к создаваемому пользователями каталогу ссылок на торрент-файлы, которые содержат только списки хеш-сумм

Страница 1 из 1

Ответить на тему

   Похожие торренты   Торрент 




tracker_crontracker_cron