Регистрация ·  Логин: Пароль: Запомнить   · Забыли пароль?




Ответить на тему
Статистика раздачи
Размер: 2.13 ГБ | Зарегистрирован: 13 окт 2020, 16:07 | .torrent скачан: 0 раз(а), DHT: [ 0 ] раз(а)
Сидеров: [ 0  | 0 байт/сек ]   Личеров: [ 0  | 0 байт/сек ]   DHT: [ 0 / 0 ]
Автор Сообщение

Модератор

С нами: 2 года 4 месяца
Сообщения: 3361
Россия

Сообщение 13 окт 2020, 16:07 

[Цитировать]


«Всё под контролем. Почти»

Информация о фильме
Название: Мой шпион
Оригинальное название: My Spy
Год выхода: 2020
Жанр: Боевик, комедия, семейный

Режиссер: Питер Сигал
В ролях: Дэйв Батиста, Хлоя Коулмэн, Париса Фитц-Хенли, Кристен Шаал, Грег Брайк, Кен Жонг, Никола Коррейя-Дамуд, Девере Роджерс, Ноа Дэнби, Вьеслав Кристиан

О фильме:
Самый суровый агент ЦРУ, выполняя сверхсекретное задание, случайно попадает на камеру 9-летней девчонки. Софи готова сохранить все в строжайшей тайне, если Джей-Джей научит её быть настоящей шпионкой.

Страна: США, Канада
Студия: Dream Bros. Entertainment, Odd Lot Entertainment, The Robert Simonds Company
Продолжительность: 01:41:01
Перевод:
• Профессиональный (полное дублирование) | iTunes
Файл
Качество: BDRip-AVC
Исходник: My.Spy.2020.BDREMUX.1080p.seleZen.mkv
Формат: MKV
Кодек: MPEG-4 AVC
Видео: 1024x428 (2,40:1), 23.976 fps, MPEG-4 AVC ~ 2189 Kbps avg, 0.208 bit/pixel
Аудио: AC3, 48 kHz, 6 ch, ~384.00 kbps avg | русский | iTunes
Аудио: AC3, 48 kHz, 6 ch, ~448.00 kbps avg | английский | Оригинал
Субтитры: Отсутствуют

Общее
Уникальный идентификатор : 250648811189234884799339811274057616488 (0xBC913481659F7D346F2904BF0C7C8C68)
Полное имя : My.Spy.2020.BDRip.2.13Gb.x264.mkv
Формат : Matroska
Версия формата : Version 4
Размер файла : 2,13 Гбайт
Продолжительность : 1 ч. 41 м.
Общий поток : 3 017 Кбит/сек
Название фильма : Мой шпион / My Spy (2020)
Дата кодирования : UTC 2020-09-24 03:38:36
Программа кодирования : mkvmerge v47.0.0 ('Black Flag') 64-bit
Библиотека кодирования : libebml v1.3.10 + libmatroska v1.5.2
Обложка : Yes
Attachments : cover.jpg

Видео
Идентификатор : 1
Формат : AVC
Формат/Информация : Advanced Video Codec
Профиль формата : [email protected]
Настройки формата : CABAC / 9 Ref Frames
Параметр CABAC формата : Да
Параметр RefFrames формата : 9 кадров
Идентификатор кодека : V_MPEG4/ISO/AVC
Продолжительность : 1 ч. 41 м.
Битрейт : 2 189 Кбит/сек
Ширина : 1 024 пикселя
Высота : 428 пикселей
Соотношение сторон : 2,40:1
Режим частоты кадров : Постоянный
Частота кадров : 23,976 (24000/1001) кадра/сек
Цветовое пространство : YUV
Субдискретизация насыщенности : 4:2:0
Битовая глубина : 8 бит
Тип развёртки : Прогрессивная
Бит/(Пиксели*Кадры) : 0.208
Размер потока : 1,54 Гбайт (72%)
Заголовок : #stillet
Библиотека кодирования : x264 core 152 r2851bm ba24899
Настройки программы : cabac=1 / ref=9 / deblock=1:-2:-2 / analyse=0x3:0x113 / me=umh / subme=10 / psy=1 / psy_rd=1.00:0.15 / mixed_ref=1 / me_range=32 / chroma_me=1 / trellis=2 / 8x8dct=1 / cqm=0 / deadzone=21,11 / fast_pskip=0 / chroma_qp_offset=-3 / threads=8 / lookahead_threads=3 / sliced_threads=0 / nr=0 / decimate=0 / interlaced=0 / bluray_compat=0 / constrained_intra=0 / bframes=10 / b_pyramid=2 / b_adapt=2 / b_bias=0 / direct=3 / weightb=1 / open_gop=0 / weightp=2 / keyint=240 / keyint_min=23 / scenecut=40 / intra_refresh=0 / rc=2pass / mbtree=0 / bitrate=2189 / ratetol=1.0 / qcomp=0.60 / qpmin=0 / qpmax=69 / qpstep=4 / cplxblur=20.0 / qblur=0.5 / ip_ratio=1.40 / pb_ratio=1.30 / aq=1:1.00
Язык : English
Default : Да
Forced : Нет

Аудио #1
Идентификатор : 2
Формат : AC-3
Формат/Информация : Audio Coding 3
Коммерческое название : Dolby Digital
Идентификатор кодека : A_AC3
Продолжительность : 1 ч. 40 м.
Вид битрейта : Постоянный
Битрейт : 384 Кбит/сек
Каналы : 6 каналов
Channel layout : L R C LFE Ls Rs
Частота : 48,0 КГц
Частота кадров : 31,250 кадров/сек (1536 SPF)
Метод сжатия : С потерями
Размер потока : 276 Мбайт (13%)
Заголовок : iTunes
Язык : Russian
Service kind : Complete Main
Default : Да
Forced : Да

Аудио #2
Идентификатор : 3
Формат : AC-3
Формат/Информация : Audio Coding 3
Коммерческое название : Dolby Digital
Идентификатор кодека : A_AC3
Продолжительность : 1 ч. 41 м.
Вид битрейта : Постоянный
Битрейт : 448 Кбит/сек
Каналы : 6 каналов
Channel layout : L R C LFE Ls Rs
Частота : 48,0 КГц
Частота кадров : 31,250 кадров/сек (1536 SPF)
Метод сжатия : С потерями
Размер потока : 324 Мбайт (15%)
Язык : English
Service kind : Complete Main
Default : Нет
Forced : Нет

Меню
00:00:00.000 : en:Глава 01
00:09:58.556 : en:Глава 02
00:18:33.779 : en:Глава 03
00:23:39.543 : en:Глава 04
00:31:39.856 : en:Глава 05
00:41:08.633 : en:Глава 06
00:50:19.600 : en:Глава 07
00:59:30.984 : en:Глава 08
01:07:40.932 : en:Глава 09
01:16:00.431 : en:Глава 10
01:24:45.372 : en:Глава 11
01:32:48.605 : en:Глава 12


Download
Для скачивания .torrent файлов необходима регистрация
Сайт не распространяет и не хранит электронные версии произведений, а лишь предоставляет доступ к создаваемому пользователями каталогу ссылок на торрент-файлы, которые содержат только списки хеш-сумм

Страница 1 из 1

Ответить на тему

   Похожие торренты   Торрент 




tracker_crontracker_cron