Регистрация ·  Логин: Пароль: Запомнить   · Забыли пароль?




Ответить на тему
Статистика раздачи
Размер: 10.36 ГБ | Зарегистрирован: 13 окт 2020, 16:07 | .torrent скачан: 0 раз(а), DHT: [ 2114 ] раз(а)
Сидеров: [ 35  | 0 байт/сек ]   Личеров: [ 8  | 0 байт/сек ]   DHT: [ 35 / 8 ]
Автор Сообщение

Модератор

С нами: 2 года 5 месяцев
Сообщения: 3401
Россия

Сообщение 13 окт 2020, 16:07 

[Цитировать]


Информация о фильме
Название: Билл и Тед
Оригинальное название: Bill & Ted Face the Music
Год выхода: 2020
Жанр: Комедия, фантастика, музыка, фэнтези
Режиссер: Дин Паризо
В ролях: Киану Ривз, Алекс Уинтер, Кристен Шаал, Самара Уивинг, Бригитт Ланди-Пейн, Уильям Сэдлер, Энтони Кэрриган, Эринн Хэйс, Джейма Мейс, Хэл Лэндон мл.



О фильме: Музыканты-раздолбаи Билл и Тед всю жизнь верили в пророчество, что их рок-н-ролл спасёт вселенную от гибели. И вот, глобальная катастрофа уже на носу, и на спасение мира у парней остается чуть больше часа. И тогда они решают отправиться в будущее, чтобы стырить песню… у самих себя. Вместе с папашами в путешествие отправляются уже взрослые дочери Билла и Теда. Смогут ли папины дочки выдержать напор отцовского креатива?

Страна: США, Канада, Италия
Студия: Hammerstone Studios, Dial 9, Dugan Entertainment
Продолжительность: 01:31:55
Перевод: Дублированный | iTunes

Качество: WEB-DL 2160p
Видео: 3840x2160 at 23.976 fps, MPEG-H HEVC SDR Video, 15100 kbps avg
Аудио #01: 48 kHz, AC3, 5.1, 384 Kbps | iTunes | RUS |
Аудио #02: 48 kHz, E-AC3, 5.1, 640 Kbps | Оригинал | ENG |
Субтитры: Русские (Full), английские



General
Unique ID : 14793891814027644690582523032506444350 (0xB21332E35E29BE1ACF0417A3B0FAA3E)
Complete name : D:Video111Bill.and.Ted.Face.the.Music.2020.WEB-DL.2160p.SDR.seleZen.mkv
Format : Matroska
Format version : Version 4
File size : 10.4 GiB
Duration : 1 h 31 min
Overall bit rate : 16.1 Mb/s
Movie name : Bill and Ted Face the Music 2020 from селезень
Encoded date : UTC 2020-09-23 22:04:18
Writing application : mkvmerge v40.0.0 ('Old Town Road + Pony') 64-bit
Writing library : libebml v1.3.9 + libmatroska v1.5.2

Video
ID : 1
Format : HEVC
Format/Info : High Efficiency Video Coding
Format profile : [email protected]@Main
Codec ID : V_MPEGH/ISO/HEVC
Duration : 1 h 31 min
Bit rate : 15.1 Mb/s
Width : 3 840 pixels
Height : 2 160 pixels
Display aspect ratio : 16:9
Frame rate mode : Constant
Frame rate : 23.976 (24000/1001) FPS
Color space : YUV
Chroma subsampling : 4:2:0
Bit depth : 8 bits
Bits/(Pixel*Frame) : 0.076
Stream size : 9.70 GiB (94%)
Language : English
Default : Yes
Forced : No
Color range : Limited
Color primaries : BT.709
Transfer characteristics : BT.709
Matrix coefficients : BT.709

Audio #1
ID : 2
Format : AC-3
Format/Info : Audio Coding 3
Commercial name : Dolby Digital
Codec ID : A_AC3
Duration : 1 h 31 min
Bit rate mode : Constant
Bit rate : 384 kb/s
Channel(s) : 6 channels
Channel layout : L R C LFE Ls Rs
Sampling rate : 48.0 kHz
Frame rate : 31.250 FPS (1536 SPF)
Compression mode : Lossy
Stream size : 252 MiB (2%)
Title : iTunes
Language : Russian
Service kind : Complete Main
Default : Yes
Forced : Yes

Audio #2
ID : 3
Format : E-AC-3
Format/Info : Enhanced AC-3
Commercial name : Dolby Digital Plus
Codec ID : A_EAC3
Duration : 1 h 31 min
Bit rate mode : Constant
Bit rate : 640 kb/s
Channel(s) : 6 channels
Channel layout : L R C LFE Ls Rs
Sampling rate : 48.0 kHz
Frame rate : 31.250 FPS (1536 SPF)
Compression mode : Lossy
Stream size : 421 MiB (4%)
Title : Original
Language : English
Service kind : Complete Main
Default : No
Forced : No

Text #1
ID : 4
Format : UTF-8
Codec ID : S_TEXT/UTF8
Codec ID/Info : UTF-8 Plain Text
Duration : 1 h 31 min
Bit rate : 106 b/s
Count of elements : 1571
Stream size : 71.1 KiB (0%)
Title : Full
Language : Russian
Default : No
Forced : No

Text #2
ID : 5
Format : UTF-8
Codec ID : S_TEXT/UTF8
Codec ID/Info : UTF-8 Plain Text
Duration : 1 h 31 min
Bit rate : 63 b/s
Count of elements : 1583
Stream size : 42.1 KiB (0%)
Title : Full
Language : English
Default : No
Forced : No

Text #3
ID : 6
Format : UTF-8
Codec ID : S_TEXT/UTF8
Codec ID/Info : UTF-8 Plain Text
Duration : 1 h 31 min
Bit rate : 68 b/s
Count of elements : 1733
Stream size : 45.4 KiB (0%)
Title : SDH
Language : English
Default : No
Forced : No

Menu
00:00:00.000 : en:Studio Logo
00:00:33.000 : en:Prologue
00:01:56.000 : en:Wedding
00:06:32.000 : en:Couples' Therapy
00:09:53.000 : en:Respecting the situation
00:20:54.000 : en:Plagiarizer
00:25:49.000 : en:Putting plans in place
00:30:05.000 : en:Assembling a band
00:41:57.000 : en:More members
00:47:09.000 : en:Hell
00:51:42.000 : en:Face the music
00:59:05.000 : en:The last member
01:10:00.000 : en:The prophesy
01:24:15.000 : en:End Credits
01:29:38.000 : en:One last thing to do


Релиз: Присоединяйся к:



Download
Для скачивания .torrent файлов необходима регистрация
Сайт не распространяет и не хранит электронные версии произведений, а лишь предоставляет доступ к создаваемому пользователями каталогу ссылок на торрент-файлы, которые содержат только списки хеш-сумм

Страница 1 из 1

Ответить на тему

   Похожие торренты   Торрент