Регистрация ·  Логин: Пароль: Запомнить   · Забыли пароль?




Ответить на тему
Статистика раздачи
Размер: 25.33 ГБ | Зарегистрирован: 13 окт 2020, 16:07 | .torrent скачан: 0 раз(а), DHT: [ 0 ] раз(а)
Сидеров: [ 0  | 0 байт/сек ]   Личеров: [ 0  | 0 байт/сек ]   DHT: [ 0 / 0 ]
Автор Сообщение

Модератор

С нами: 2 года 4 месяца
Сообщения: 3361
Россия

Сообщение 13 окт 2020, 16:07 

[Цитировать]


Информация о фильме
Название: Мой шпион
Оригинальное название: My Spy
Год выхода: 2020
Жанр: Боевик, комедия, семейный
Режиссер: Питер Сигал
В ролях: Дэйв Батиста, Хлоя Коулмэн, Париса Фитц-Хенли, Кристен Шаал, Грег Брайк, Кен Жонг, Никола Коррейя-Дамуд, Девере Роджерс, Ноа Дэнби, Вьеслав Кристиан



О фильме: Опытный специальный агент ЦРУ выполняет очень секретную миссию. Он наблюдает за семейной парой. Главному герою предстоит полностью подчиниться власти девятилетней дочери объектов наблюдения, чтобы не быть раскрытым и довести дело до конца. Девочка очень шебутная и непредсказуемая. Агент ЦРУ вынужден выполнять все ее пожелания, иначе может провалить задание. А это чревато серьезными проблемами с начальством и нанесет сильнейший урон по репутации, вплоть до разжалования из отряда спецагентов. Кинокартина изобилует красочными кадрами, смешными моментами и неожиданными поворотами сюжета.

Страна: США
Студия: MWM Studios, STX Entertainment, Odd Lot Entertainment, Robert Simonds Company, The
Продолжительность: 01:41:01
Перевод: Дублированный | iTunes

Качество: BDRemux 1080p
Видео: MPEG-4 AVC, 1920x1080, 31.9 Mbit/s, 23.976 fps
Аудио #01: 48 kHz, AC3, 5.1, 384 Kbps | iTunes | RUS |
Аудио #02: 48 kHz, DTS-HD MA, 5.1, 3639 Kbps | Оригинал | ENG |
Субтитры: Нет



General
Unique ID : 184119880898066840281806950565625623381 (0x8A8432FEA1856D9DFB7DBF04232E7355)
Complete name : D:Video111My.Spy.2020.BDREMUX.1080p.seleZen.mkv
Format : Matroska
Format version : Version 4
File size : 25.3 GiB
Duration : 1 h 41 min
Overall bit rate mode : Variable
Overall bit rate : 35.9 Mb/s
Movie name : My Spy 2020 from селезень
Encoded date : UTC 2020-09-23 20:16:59
Writing application : mkvmerge v40.0.0 ('Old Town Road + Pony') 64-bit
Writing library : libebml v1.3.9 + libmatroska v1.5.2

Video
ID : 1
Format : AVC
Format/Info : Advanced Video Codec
Format profile : [email protected]
Format settings : CABAC / 3 Ref Frames
Format settings, CABAC : Yes
Format settings, Reference : 3 frames
Codec ID : V_MPEG4/ISO/AVC
Duration : 1 h 41 min
Bit rate mode : Variable
Bit rate : 31.9 Mb/s
Maximum bit rate : 35.0 Mb/s
Width : 1 920 pixels
Height : 1 080 pixels
Display aspect ratio : 16:9
Frame rate mode : Constant
Frame rate : 23.976 (24000/1001) FPS
Color space : YUV
Chroma subsampling : 4:2:0
Bit depth : 8 bits
Scan type : Progressive
Bits/(Pixel*Frame) : 0.641
Stream size : 22.5 GiB (89%)
Language : German
Default : Yes
Forced : No

Audio #1
ID : 2
Format : AC-3
Format/Info : Audio Coding 3
Commercial name : Dolby Digital
Codec ID : A_AC3
Duration : 1 h 40 min
Bit rate mode : Constant
Bit rate : 384 kb/s
Channel(s) : 6 channels
Channel layout : L R C LFE Ls Rs
Sampling rate : 48.0 kHz
Frame rate : 31.250 FPS (1536 SPF)
Compression mode : Lossy
Stream size : 276 MiB (1%)
Title : iTunes
Language : Russian
Service kind : Complete Main
Default : Yes
Forced : Yes

Audio #2
ID : 3
Format : DTS XLL
Format/Info : Digital Theater Systems
Commercial name : DTS-HD Master Audio
Codec ID : A_DTS
Duration : 1 h 41 min
Bit rate mode : Variable
Bit rate : 3 639 kb/s
Channel(s) : 6 channels
Channel layout : C L R Ls Rs LFE
Sampling rate : 48.0 kHz
Frame rate : 93.750 FPS (512 SPF)
Bit depth : 24 bits
Compression mode : Lossless
Stream size : 2.57 GiB (10%)
Title : Original
Language : English
Default : No
Forced : No

Menu
00:00:00.000 : en:Глава 01
00:09:58.556 : en:Глава 02
00:18:33.779 : en:Глава 03
00:23:39.543 : en:Глава 04
00:31:39.856 : en:Глава 05
00:41:08.633 : en:Глава 06
00:50:19.600 : en:Глава 07
00:59:30.984 : en:Глава 08
01:07:40.932 : en:Глава 09
01:16:00.431 : en:Глава 10
01:24:45.372 : en:Глава 11
01:32:48.605 : en:Глава 12


Релиз: Присоединяйся к:


Download
Для скачивания .torrent файлов необходима регистрация
Сайт не распространяет и не хранит электронные версии произведений, а лишь предоставляет доступ к создаваемому пользователями каталогу ссылок на торрент-файлы, которые содержат только списки хеш-сумм

Страница 1 из 1

Ответить на тему

   Похожие торренты   Торрент 




tracker_crontracker_cron