Регистрация ·  Логин: Пароль: Запомнить   · Забыли пароль?




Ответить на тему
Статистика раздачи
Размер: 5.09 ГБ | Зарегистрирован: 13 окт 2020, 16:06 | .torrent скачан: 0 раз(а), DHT: [ 4340 ] раз(а)
Сидеров: [ 58  | 0 байт/сек ]   Личеров: [ 1  | 0 байт/сек ]   DHT: [ 58 / 1 ]
Автор Сообщение

Модератор

С нами: 2 года 4 месяца
Сообщения: 3361
Россия

Сообщение 13 окт 2020, 16:06 

[Цитировать]


Информация о фильме
Название: Не входи
Оригинальное название: The Owners
Год выхода: 2020
Жанр: Триллер, криминал
Режиссер: Джулиус Берг
В ролях: Мэйси Уильямс, Сильвестр МакКой, Рита Ташингэм, Джейк Каррен, Иэн Кенни, Эндрю Эллис, Сташа Хикс



О фильме: Три молодых британских бездельника планируют ограбить особняк местного хирурга. Проникнув в дом, они довольно быстро находят сейф, но взломать его никак не получается. Пока злоумышленники дожидаются хозяев, чтобы выпытать у них код, к ним присоединяется девушка одного из них. А когда домой возвращается пожилой доктор с супругой, события принимают неожиданный поворот.

Страна: Великобритания
Студия: Blue Light, Logical Pictures, Wild Bunch
Продолжительность: 01:31:59
Перевод: Дублированный | iTunes

Качество: WEB-DL 1080p
Видео: MPEG-4 AVC, 1920x816, 6890 Кbit/s, 24.000 fps
Аудио #01: 48 kHz, AC3, 5.1, 384 Kbps | iTunes | RUS |
Аудио #02: 48 kHz, E-AC3, 5.1, 640 Kbps | Оригинал | ENG |
Субтитры: Английские



General
Unique ID : 126498566736589704400463515130912080076 (0x5F2ABCDDD6FC529D8049AA7BF74880CC)
Complete name : D:Video111The.Owners.2020.AMZN.WEB-DL.1080p.seleZen.mkv
Format : Matroska
Format version : Version 4
File size : 5.09 GiB
Duration : 1 h 32 min
Overall bit rate : 7 914 kb/s
Movie name : The Owners 2020 from селезень
Encoded date : UTC 2020-09-23 11:42:09
Writing application : mkvmerge v40.0.0 ('Old Town Road + Pony') 64-bit
Writing library : libebml v1.3.9 + libmatroska v1.5.2

Video
ID : 1
Format : AVC
Format/Info : Advanced Video Codec
Format profile : [email protected]
Format settings : CABAC / 4 Ref Frames
Format settings, CABAC : Yes
Format settings, Reference : 4 frames
Codec ID : V_MPEG4/ISO/AVC
Duration : 1 h 31 min
Bit rate mode : Constant
Bit rate : 6 890 kb/s
Nominal bit rate : 10 000 kb/s
Width : 1 920 pixels
Height : 816 pixels
Display aspect ratio : 2.35:1
Frame rate mode : Constant
Frame rate : 24.000 FPS
Color space : YUV
Chroma subsampling : 4:2:0
Bit depth : 8 bits
Scan type : Progressive
Bits/(Pixel*Frame) : 0.183
Stream size : 4.43 GiB (87%)
Default : Yes
Forced : No
Color range : Limited
Color primaries : BT.709
Transfer characteristics : BT.709
Matrix coefficients : BT.709

Audio #1
ID : 2
Format : AC-3
Format/Info : Audio Coding 3
Commercial name : Dolby Digital
Codec ID : A_AC3
Duration : 1 h 32 min
Bit rate mode : Constant
Bit rate : 384 kb/s
Channel(s) : 6 channels
Channel layout : L R C LFE Ls Rs
Sampling rate : 48.0 kHz
Frame rate : 31.250 FPS (1536 SPF)
Compression mode : Lossy
Stream size : 253 MiB (5%)
Title : iTunes
Language : Russian
Service kind : Complete Main
Default : Yes
Forced : Yes

Audio #2
ID : 3
Format : E-AC-3
Format/Info : Enhanced AC-3
Commercial name : Dolby Digital Plus
Codec ID : A_EAC3
Duration : 1 h 31 min
Bit rate mode : Constant
Bit rate : 640 kb/s
Channel(s) : 6 channels
Channel layout : L R C LFE Ls Rs
Sampling rate : 48.0 kHz
Frame rate : 31.250 FPS (1536 SPF)
Compression mode : Lossy
Stream size : 421 MiB (8%)
Title : Original
Language : English
Service kind : Complete Main
Default : No
Forced : No

Text #1
ID : 4
Format : UTF-8
Codec ID : S_TEXT/UTF8
Codec ID/Info : UTF-8 Plain Text
Duration : 1 h 26 min
Bit rate : 57 b/s
Count of elements : 1383
Stream size : 36.5 KiB (0%)
Language : English
Default : No
Forced : No

Text #2
ID : 5
Format : UTF-8
Codec ID : S_TEXT/UTF8
Codec ID/Info : UTF-8 Plain Text
Duration : 1 h 28 min
Bit rate : 60 b/s
Count of elements : 1508
Stream size : 38.9 KiB (0%)
Title : SDH
Language : English
Default : No
Forced : No


Релиз: Присоединяйся к:


Download
Для скачивания .torrent файлов необходима регистрация
Сайт не распространяет и не хранит электронные версии произведений, а лишь предоставляет доступ к создаваемому пользователями каталогу ссылок на торрент-файлы, которые содержат только списки хеш-сумм

Страница 1 из 1

Ответить на тему

   Похожие торренты   Торрент 




tracker_crontracker_cron