Регистрация ·  Логин: Пароль: Запомнить   · Забыли пароль?




Ответить на тему
Статистика раздачи
Размер: 1.84 ГБ | Зарегистрирован: 13 окт 2020, 16:06 | .torrent скачан: 0 раз(а), DHT: [ 0 ] раз(а)
Сидеров: [ 0  | 0 байт/сек ]   Личеров: [ 0  | 0 байт/сек ]   DHT: [ 0 / 0 ]
Автор Сообщение

Модератор

С нами: 2 года 4 месяца
Сообщения: 3361
Россия

Сообщение 13 окт 2020, 16:06 

[Цитировать]

Влюбиться в моего плохого парня / Fall in Love with My Badboy

Информация о фильме:
Название: Влюбиться в моего плохого парня
Оригинальное название: Fall in Love with My Badboy
Год выхода: 2020
Жанр: Комедия, романтика, исторический
Режиссер: Ле Дун Шен
В ролях: Ян Чуань Бэй, Доу Цзы, У Чжу Си
Описание: Линь Юэшань, деревенская девушка, над которой издевались в родном городе, пошла во всемирно известный клан №1, чтобы изменить свое обычное интровертное «я». Неожиданно, как только она прибыла в клан № 1 в мире, она спровоцировала властного и высокомерного Брата Демона Лун Шаочэня. Лун Шаочэнь приказал Линь Юэшань подчиняться ему. С того дня Линь Юэшань, которая медленно меняется, рада возможности общаться с нежным «бессмертным» Дуань Муцзэ, и сопротивляться уловкам Лун Шаочэня, который относится к ней как к прислуге. Хотя сердце Линь Юэшань колышется под нежным уходом Дуань Муцзэ, она борется с действиями Лун Шаочэня, постепенно она впустила Лун Шаочэня в своё сердце. По мере того, как список желаний Линь Юэшань заполняется одно за другим, Лун Шаочэнь и Дуань Муцзэ постепенно к ней сильно привязываются. Линь Юэшань, которая между этими двумя, не знает, куда идти ...
Страна: Китай
Продолжительность: 01:36:56
Перевод: Любительский (двухголосый, закадровый) - East Dream

Информация о файле:
Кодек: AVC
Формат: MKV
Качество: WEB-DLRip-AVC
Видео: MPEG-4 AVC, 1024x430 (2.40:1), 24.000 fps, 2 522 kb/s, 0.239
Аудио RU: AC3, 2 ch, 48 kHz, 192 kbps


General
Unique ID : 113290862538954225248252562553436423770 (0x553B06C60311031DE56CA0F1BEA4C65A)
Complete name : D:uTorrentРипы_от_wolf1245_MediaBitFall.in.Love.with.My.Badboy.2020.WEB-DLRip-AVC_wolf1245 & MediaBit.mkv
Format : Matroska
Format version : Version 4
File size : 1.84 GiB
Duration : 1 h 36 min
Overall bit rate : 2 715 kb/s
Movie name : Fall.in.Love.with.My.Badboy.2020.WEB-DLRip-AVC from wolf1245 & MediaBit
Encoded date : UTC 2020-09-22 19:32:34
Writing application : mkvmerge v50.0.0 ('Awakenings') 64-bit
Writing library : libebml v1.4.0 + libmatroska v1.6.2
Video
ID : 1
Format : AVC
Format/Info : Advanced Video Codec
Format profile : [email protected]
Format settings : CABAC / 12 Ref Frames
Format settings, CABAC : Yes
Format settings, Reference frames : 12 frames
Codec ID : V_MPEG4/ISO/AVC
Duration : 1 h 36 min
Bit rate : 2 522 kb/s
Width : 1 024 pixels
Height : 430 pixels
Display aspect ratio : 2.40:1
Frame rate mode : Constant
Frame rate : 24.000 FPS
Color space : YUV
Chroma subsampling : 4:2:0
Bit depth : 8 bits
Scan type : Progressive
Bits/(Pixel*Frame) : 0.239
Stream size : 1.71 GiB (93%)
Title : wolf1245 & MediaBit
Writing library : x264 core 157 r2958 57baac4
Encoding settings : cabac=1 / ref=12 / deblock=1:-3:-3 / analyse=0x3:0x133 / me=umh / subme=11 / psy=1 / psy_rd=1.00:0.07 / mixed_ref=1 / me_range=48 / chroma_me=1 / trellis=2 / 8x8dct=1 / cqm=0 / deadzone=21,11 / fast_pskip=0 / chroma_qp_offset=-3 / threads=10 / lookahead_threads=2 / sliced_threads=0 / nr=0 / decimate=0 / interlaced=0 / bluray_compat=0 / constrained_intra=0 / bframes=12 / b_pyramid=2 / b_adapt=2 / b_bias=0 / direct=3 / weightb=1 / open_gop=0 / weightp=2 / keyint=240 / keyint_min=24 / scenecut=40 / intra_refresh=0 / rc_lookahead=60 / rc=2pass / mbtree=0 / bitrate=2522 / ratetol=1.0 / qcomp=0.60 / qpmin=0 / qpmax=69 / qpstep=4 / cplxblur=20.0 / qblur=0.5 / vbv_maxrate=50000 / vbv_bufsize=62500 / nal_hrd=none / filler=0 / ip_ratio=1.40 / pb_ratio=1.30 / aq=2:0.80
Language : Chinese
Default : Yes
Forced : No
Color range : Limited
Audio
ID : 2
Format : AC-3
Format/Info : Audio Coding 3
Commercial name : Dolby Digital
Codec ID : A_AC3
Duration : 1 h 36 min
Bit rate mode : Constant
Bit rate : 192 kb/s
Channel(s) : 2 channels
Channel layout : L R
Sampling rate : 48.0 kHz
Frame rate : 31.250 FPS (1536 SPF)
Compression mode : Lossy
Stream size : 133 MiB (7%)
Title : DVO | East Dream
Language : Russian
Service kind : Complete Main
Default : Yes
Forced : No

Релиз от: &

Download
Для скачивания .torrent файлов необходима регистрация
Сайт не распространяет и не хранит электронные версии произведений, а лишь предоставляет доступ к создаваемому пользователями каталогу ссылок на торрент-файлы, которые содержат только списки хеш-сумм

Страница 1 из 1

Ответить на тему

   Похожие торренты   Торрент 




tracker_crontracker_cron