Регистрация ·  Логин: Пароль: Запомнить   · Забыли пароль?




Ответить на тему
Статистика раздачи
Размер: 2.79 ГБ | Зарегистрирован: 13 окт 2020, 16:06 | .torrent скачан: 0 раз(а), DHT: [ 2658 ] раз(а)
Сидеров: [ 15  | 0 байт/сек ]   Личеров: [ 1  | 0 байт/сек ]   DHT: [ 15 / 1 ]
Автор Сообщение

Модератор

С нами: 2 года 4 месяца
Сообщения: 3361
Россия

Сообщение 13 окт 2020, 16:06 

[Цитировать]


Информация о фильме
Название: Одна
Оригинальное название: Alone
Год выхода: 2020
Жанр: Триллер
Режиссер: Владислав Хесин
В ролях: Элизабет Арендс, Сара Энн, Альбина Кацман, Бэйли Коппола, Дэйн Мэйджорс, Кайл Дондлинджер, Грэхэм Дженкинс, Цезар Джеймс, Криста Аткинс, Сиркус-Шалевски



О фильме: История писательницы, ищущей мира и уединения в сельской местности в попытке оправиться от трагедии и закончить свою книгу. Однако, когда гостеприимный загородный дом превращается в настоящий ад, она вскоре понимает, что ее внутренние демоны — не худшая из ее проблем.

Страна: США
Студия: Broken Cage Studio, Lerfilm
Продолжительность: 01:20:18
Перевод: Дублированный | iTunes

Качество: WEB-DL 1080p
Видео: MPEG-4 AVC, 1920x800, 4593 Кbit/s, 24.000 fps
Аудио: 48 kHz, AC3, 5.1, 384 Kbps | iTunes | RUS |
Субтитры: Нет



General
Unique ID : 93234235080487947518585053671726290913 (0x462442B154B7007E9DFA5AC4BB0097E1)
Complete name : D:Video111Alone.2020.WEB-DL.1080p.seleZen.mkv
Format : Matroska
Format version : Version 4
File size : 2.79 GiB
Duration : 1 h 20 min
Overall bit rate : 4 979 kb/s
Movie name : Alone 2020 from селезень
Encoded date : UTC 2020-09-22 12:07:27
Writing application : mkvmerge v40.0.0 ('Old Town Road + Pony') 64-bit
Writing library : libebml v1.3.9 + libmatroska v1.5.2

Video
ID : 1
Format : AVC
Format/Info : Advanced Video Codec
Format profile : [email protected]
Format settings : CABAC / 5 Ref Frames
Format settings, CABAC : Yes
Format settings, Reference : 5 frames
Codec ID : V_MPEG4/ISO/AVC
Duration : 1 h 20 min
Bit rate : 4 593 kb/s
Width : 1 920 pixels
Height : 800 pixels
Display aspect ratio : 2.40:1
Frame rate mode : Constant
Frame rate : 24.000 FPS
Color space : YUV
Chroma subsampling : 4:2:0
Bit depth : 8 bits
Scan type : Progressive
Bits/(Pixel*Frame) : 0.125
Stream size : 2.58 GiB (92%)
Language : English
Default : Yes
Forced : No
Color range : Limited
Color primaries : BT.709
Transfer characteristics : BT.709
Matrix coefficients : BT.709

Audio
ID : 2
Format : AC-3
Format/Info : Audio Coding 3
Commercial name : Dolby Digital
Codec ID : A_AC3
Duration : 1 h 20 min
Bit rate mode : Constant
Bit rate : 384 kb/s
Channel(s) : 6 channels
Channel layout : L R C LFE Ls Rs
Sampling rate : 48.0 kHz
Frame rate : 31.250 FPS (1536 SPF)
Compression mode : Lossy
Stream size : 221 MiB (8%)
Title : iTunes
Language : Russian
Service kind : Complete Main
Default : Yes
Forced : Yes

Menu
00:00:00.000 : en:Глава 1
00:07:05.458 : en:Глава 2
00:14:22.791 : en:Глава 3
00:23:06.249 : en:Глава 4
00:31:22.540 : en:Глава 5
00:38:58.790 : en:Глава 6
00:44:49.290 : en:Глава 7
00:51:36.956 : en:Глава 8
00:57:54.289 : en:Глава 9
01:04:47.289 : en:Глава 10
01:12:50.622 : en:Глава 11


Релиз: Присоединяйся к:


Download
Для скачивания .torrent файлов необходима регистрация
Сайт не распространяет и не хранит электронные версии произведений, а лишь предоставляет доступ к создаваемому пользователями каталогу ссылок на торрент-файлы, которые содержат только списки хеш-сумм

Страница 1 из 1

Ответить на тему

   Похожие торренты   Торрент 




tracker_crontracker_cron