Регистрация ·  Логин: Пароль: Запомнить   · Забыли пароль?




Ответить на тему
Статистика раздачи
Размер: 751.54 МБ | Зарегистрирован: 13 окт 2020, 16:05 | .torrent скачан: 0 раз(а), DHT: [ 73 ] раз(а)
Сидеров: [ 15  | 0 байт/сек ]   Личеров: [ 1  | 0 байт/сек ]   DHT: [ 15 / 1 ]
Автор Сообщение

Модератор

С нами: 2 года 5 месяцев
Сообщения: 3401
Россия

Сообщение 13 окт 2020, 16:05 

[Цитировать]

Спасти панду / Miseuteo Ju: sarajin VIP / Mr. Zoo: The Missing VIP

Информация о фильме:
Название: Спасти панду
Оригинальное название: Miseuteo Ju: sarajin VIP / Mr. Zoo: The Missing VIP
Год выхода: 2020
Жанр: Комедия, боевик, фэнтези
Режиссер: Тэ Юн Ким
В ролях: Сон Мин Ли, Со Хён Ким (II), Со Вон Каль, Чжон Нам Пэ, Ха Гюн Син, Ин На Ю, Су Ми Ким, Сон Гён Ли, Чон Ын Ли, Сун Чжэ Ли, Бо Сон Ким, Хун Сон, Ингу
Описание: На 25-летие дипломатических отношений Китай присылает в Южную Корею панду Минмин. Сотрудник спецслужб Чу, который не особо любит животных, но рассчитывает на повышение, вызывается охранять панду. Сразу после прибытия в зоопарк Минмин похищают неизвестные, а сам мужчина неудачно ударяется головой — теперь он может понимать, чего хотят от него животные. Особого уровня взаимопонимания ему придётся достичь со служебной овчаркой Али, которая запомнила злоумышленников и не только поможет найти важного зверя, но и станет агенту Чу настоящим другом.

Страна: Южная Корея
Студия: Korea Investment Partners, Leeyang Film, LiTTLE BiG PiCTURES, Megabox Plus M
Продолжительность: 01:53:21
Перевод: Дублированный - iTunes

Информация о файле:
Кодек: AVC
Формат: MKV
Качество: WEB-DLRip-AVC
Видео: MPEG-4 AVC, 720x302 (2.40:1), 24.000 fps, 829 kbps, 0.159
Аудио RU: AAC-HE, 2 ch, 48 kHz, 96 kbps


x264 info: frame I:1744 Avg QP:15.34 size: 34573
x264 info: frame P:42166 Avg QP:18.50 size: 8929
x264 info: frame B:119331 Avg QP:20.20 size: 2247
x264 info: consecutive B-frames: 2.8% 4.8% 6.5% 63.1% 6.6% 11.2% 1.6% 2.9% 0.2% 0.3% 0.2%
====================
General
Unique ID : 241768653667288026202732341580648804884 (0xB5E2F2EFC6D41C3BE75F013F21F9F214)
Complete name : D:uTorrentРипы_от_wolf1245_MediaBitMr. Zoo The Missing VIP 2020_wolf1245 & MediaBit.mkv
Format : Matroska
Format version : Version 4
File size : 752 MiB
Duration : 1 h 53 min
Overall bit rate : 927 kb/s
Movie name : Mr. Zoo The Missing VIP 2020 from wolf1245 & MediaBit
Encoded date : UTC 2020-09-21 19:00:46
Writing application : mkvmerge v50.0.0 ('Awakenings') 64-bit
Writing library : libebml v1.4.0 + libmatroska v1.6.2
Video
ID : 1
Format : AVC
Format/Info : Advanced Video Codec
Format profile : [email protected]
Format settings : CABAC / 10 Ref Frames
Format settings, CABAC : Yes
Format settings, Reference frames : 10 frames
Codec ID : V_MPEG4/ISO/AVC
Duration : 1 h 53 min
Bit rate : 829 kb/s
Width : 720 pixels
Height : 302 pixels
Display aspect ratio : 2.40:1
Frame rate mode : Constant
Frame rate : 24.000 FPS
Color space : YUV
Chroma subsampling : 4:2:0
Bit depth : 8 bits
Scan type : Progressive
Bits/(Pixel*Frame) : 0.159
Stream size : 672 MiB (89%)
Title : wolf1245 & MediaBit
Writing library : x264 core 157 r2958 57baac4
Encoding settings : cabac=1 / ref=10 / deblock=1:-3:-3 / analyse=0x3:0x133 / me=umh / subme=11 / psy=1 / psy_rd=0.98:0.08 / mixed_ref=1 / me_range=48 / chroma_me=1 / trellis=2 / 8x8dct=1 / cqm=0 / deadzone=21,11 / fast_pskip=0 / chroma_qp_offset=-3 / threads=10 / lookahead_threads=2 / sliced_threads=0 / nr=0 / decimate=0 / interlaced=0 / bluray_compat=0 / constrained_intra=0 / bframes=10 / b_pyramid=2 / b_adapt=2 / b_bias=0 / direct=3 / weightb=1 / open_gop=0 / weightp=2 / keyint=240 / keyint_min=24 / scenecut=40 / intra_refresh=0 / rc_lookahead=60 / rc=2pass / mbtree=0 / bitrate=829 / ratetol=1.0 / qcomp=0.60 / qpmin=0 / qpmax=69 / qpstep=4 / cplxblur=20.0 / qblur=0.5 / vbv_maxrate=50000 / vbv_bufsize=62500 / nal_hrd=none / filler=0 / ip_ratio=1.40 / pb_ratio=1.30 / aq=1:1.00
Language : English
Default : Yes
Forced : No
Color range : Limited
Color primaries : BT.709
Transfer characteristics : BT.709
Matrix coefficients : BT.709
Audio
ID : 2
Format : AAC LC SBR
Format/Info : Advanced Audio Codec Low Complexity with Spectral Band Replication
Commercial name : HE-AAC
Format settings : Implicit
Codec ID : A_AAC-2
Duration : 1 h 53 min
Bit rate : 96.0 kb/s
Channel(s) : 6 channels
Channel layout : C L R Ls Rs LFE
Sampling rate : 48.0 kHz
Frame rate : 23.438 FPS (2048 SPF)
Compression mode : Lossy
Stream size : 77.8 MiB (10%)
Title : DUB | iTunes
Language : Russian
Default : Yes
Forced : No
Menu
00:00:00.000 : :Глава 1
00:09:19.708 : :Глава 2
00:17:36.708 : :Глава 3
00:25:57.374 : :Глава 4
00:34:18.123 : :Глава 5
00:42:37.040 : :Глава 6
00:51:15.748 : :Глава 7
00:59:35.623 : :Глава 8
01:07:25.414 : :Глава 9
01:15:27.247 : :Глава 10
01:23:33.955 : :Глава 11
01:32:32.038 : :Глава 12
01:41:15.704 : :Глава 13

Релиз от: &


Download
Для скачивания .torrent файлов необходима регистрация
Сайт не распространяет и не хранит электронные версии произведений, а лишь предоставляет доступ к создаваемому пользователями каталогу ссылок на торрент-файлы, которые содержат только списки хеш-сумм

Страница 1 из 1

Ответить на тему

   Похожие торренты   Торрент